<?xml version="1.0" standalone="no"?>
<!DOCTYPE svg PUBLIC "-//W3C//DTD SVG 1.1//EN" "http://www.w3.org/Graphics/SVG/1.1/DTD/svg11.dtd" >
<svg xmlns="http://www.w3.org/2000/svg" xmlns:xlink="http://www.w3.org/1999/xlink" version="1.1">
<metadata>
Created by FontForge 20150318 at Sun Jun 28 00:47:27 2015
 By uniteet7
Copyright (c) Ray Larabie, 2000. All rights reserved.
</metadata>
<defs>
<font id="mexcelle" horiz-adv-x="461" >
  <font-face 
    font-family="mexcelle"
    font-weight="400"
    font-stretch="normal"
    units-per-em="1000"
    panose-1="2 0 5 5 1 2 0 2 0 4"
    ascent="800"
    descent="-200"
    x-height="695"
    cap-height="703"
    bbox="-56 -162 735.065 862"
    underline-thickness="50"
    underline-position="-75"
    unicode-range="U+0020-2026"
  />
<missing-glyph horiz-adv-x="442" 
d="M33 0v705h375v-705h-375zM95 63h250v580h-250v-580z" />
    <glyph glyph-name=".notdef" horiz-adv-x="442" 
d="M33 0v705h375v-705h-375zM95 63h250v580h-250v-580z" />
    <glyph glyph-name="glyph1" horiz-adv-x="0" 
 />
    <glyph glyph-name="nonmarkingreturn" horiz-adv-x="500" 
 />
    <glyph glyph-name="space" unicode=" " horiz-adv-x="314" 
 />
    <glyph glyph-name="space" unicode="&#xa0;" horiz-adv-x="314" 
 />
    <glyph glyph-name="exclam" unicode="!" horiz-adv-x="164" 
d="M30 703h20v-552h-20v552zM90 703h-20v-552h20v552zM130 703h-20v-552h20v552zM29 51q0 21 15 36t36 15t36 -15t15 -36q0 -22 -15 -36.5t-36 -14.5t-36 14.5t-15 36.5zM49 51q0 -13 9 -23t22 -10q12 0 21 10t9 23q0 29 -30 29q-31 0 -31 -29zM69 51q0 10 11 10
q13 0 13 -10q0 -15 -13 -15q-11 0 -11 15z" />
    <glyph glyph-name="quotedbl" unicode="&#x22;" horiz-adv-x="350" 
d="M131 685l20 -3l-24 -151l-20 3zM88 537l-20 3l24 151l20 -3zM48 543l-20 3l24 151l20 -3zM301 685l20 -3l-24 -151l-20 3zM258 537l-20 3l24 151l20 -3zM218 543l-20 3l24 151l20 -3z" />
    <glyph glyph-name="numbersign" unicode="#" horiz-adv-x="453" 
d="M326 260v160h105v20h-105v104h-20v-104h-160v104h-20v-104h-103v-20h103v-160h-103v-20h103v-104h20v104h160v-104h20v104h105v20h-105zM146 420h160v-160h-160v160zM286 280v120h-119v-120h119zM186 380h80v-80h-80v80zM431 280v20h-65v80h65v20h-85v-120h85zM166 460
h120v84h-20v-64h-80v64h-20v-84zM166 136h20v64h80v-64h20v84h-120v-84zM106 400h-83v-20h63v-80h-63v-20h83v120zM431 460v20h-65v64h-20v-84h85zM366 136v64h65v20h-85v-84h20zM106 544h-20v-64h-63v-20h83v84zM106 136v84h-83v-20h63v-64h20z" />
    <glyph glyph-name="dollar" unicode="$" horiz-adv-x="438" 
d="M227 664v114h-20v-114q-61 -2 -107 -47.5t-46 -106.5q0 -70 47.5 -122t116.5 -50q62 2 104 -43t42 -107q0 -56 -44.5 -94.5t-100.5 -38.5q-59 0 -101.5 41.5t-39.5 100.5h-20q-4 -63 41 -110.5t108 -53.5v-117h20v116q61 1 108 47t47 107q0 70 -47 122t-117 50
q-62 -2 -104 43t-42 107q0 56 44.5 94.5t100.5 38.5q59 0 101.5 -41.5t39.5 -100.5h20q4 64 -41.5 111.5t-109.5 53.5zM267 -84v86q51 12 92 49q58 54 60 135q3 90 -54 151t-147 61q-48 0 -78.5 29.5t-26.5 77.5q3 44 31.5 69.5t72.5 25.5q46 0 74.5 -27.5t26.5 -73.5h20
q4 50 -33.5 86.5t-87.5 37.5q-47 0 -82.5 -34t-39.5 -81q-4 -53 33 -92t90 -38q77 2 130 -56.5t51 -135.5q-2 -67 -54 -118q-43 -44 -98 -52v-100h20zM187 778h-20v-84q-50 -12 -89 -48q-59 -55 -61 -136q-1 -90 55.5 -151t145.5 -61q48 0 78.5 -29.5t26.5 -77.5
q-3 -44 -31.5 -69.5t-72.5 -25.5q-46 0 -74.5 27.5t-26.5 73.5h-20q-4 -50 33.5 -86.5t87.5 -37.5q47 0 82.5 34t39.5 81q4 53 -33 92t-90 38q-77 -2 -130 56.5t-51 135.5q2 66 53 117q43 43 97 52v99zM348 623q53 -55 50 -124h20q2 83 -57 142q-41 41 -94 53v84h-20v-98h-2
q57 -10 103 -57zM187 -84v100q-56 11 -100 58q-52 55 -49 123h-20q-1 -83 58 -141q40 -40 91 -53v-87h20z" />
    <glyph glyph-name="percent" unicode="%" horiz-adv-x="753" 
d="M598 701h19l-398 -699h-18zM562 701h18l-398 -699h-18zM525 701h19l-398 -699h-19zM201 690q-76 0 -120 -50q-39 -44 -39 -109t40 -111q44 -51 119 -50t120 51q40 46 40 111q0 64 -40 109q-44 49 -120 49zM201 350q-84 0 -134 58q-46 53 -46 128q0 72 44 120
q49 54 136 54q86 0 136 -55q45 -50 45 -123t-46 -125q-50 -57 -135 -57zM201 389q-65 -4 -104 42q-35 43 -35 104q0 59 34 97q38 43 105 38q66 5 105 -39q35 -40 35 -100q0 -61 -35 -101q-39 -45 -105 -41zM201 650q-59 0 -92 -36q-30 -32 -30 -79q0 -50 32 -86
q34 -39 90 -39t91 38q30 35 30 84q0 48 -30 81q-33 37 -91 37zM201 429q-47 0 -76 33q-25 30 -25 72t26.5 70.5t74.5 25.5q48 3 77 -27q25 -27 25 -69t-26 -72q-29 -33 -76 -33zM201 610q-40 0 -61.5 -22.5t-21.5 -54.5t22 -57t61 -28q40 3 62 27.5t22 56.5t-22 55t-62 23z
M551 335q-76 0 -120 -50q-39 -44 -39 -109t40 -111q44 -51 119 -50t120 51q40 46 40 111q0 64 -40 109q-44 49 -120 49zM551 -4q-84 0 -134 57q-46 53 -46 128q0 72 44 120q49 54 136 54q86 0 136 -55q45 -50 45 -123t-46 -125q-50 -56 -135 -56zM551 34q-65 -4 -104 42
q-35 43 -35 104q0 59 34 97q38 43 105 38q66 5 105 -39q35 -40 35 -100q0 -61 -35 -101q-39 -45 -105 -41zM551 295q-59 0 -92 -36q-30 -32 -30 -79q0 -50 32 -86q34 -39 90 -39t91 38q30 35 30 84q0 48 -30 81q-33 37 -91 37zM551 74q-47 0 -76 33q-25 30 -25 72t26.5 70.5
t74.5 25.5q48 3 77 -27q25 -27 25 -69t-26 -72q-29 -33 -76 -33zM551 255q-40 0 -61.5 -22.5t-21.5 -54.5t22 -57t61 -28q40 3 62 27.5t22 56.5t-22 55t-62 23z" />
    <glyph glyph-name="ampersand" unicode="&#x26;" horiz-adv-x="501" 
d="M388 340h97v20h-397v138q0 58 42 100t100 42q57 0 99 -42.5t39 -99.5h20q4 66 -44 114t-114 50q-68 1 -115 -47.5t-47 -116.5v-298q0 -69 47 -116t117 -46q67 2 113.5 49.5t44.5 114.5h-2v138zM368 201h2q-1 -61 -40.5 -99.5t-94.5 -41.5q-65 -3 -106 37t-41 103v140h280
v-139zM347 292v28h-239v-120q0 -54 36 -88.5t91 -31.5q48 3 81 36.5t34 85.5h-2v90h-1zM328 300v-99h2q-3 -48 -30 -74t-67 -28q-50 -2 -77.5 25t-27.5 76v100h200zM485 300v20h-77v-119h2q2 -70 -53 -125t-125 -56q-77 -2 -130.5 51t-53.5 129v298q0 72 55 127t127 55
q70 0 125.5 -56t52.5 -126h20q6 84 -54.5 142.5t-143.5 60.5q-84 1 -143 -56.5t-59 -146.5v-298q0 -82 60 -141t143 -59q82 0 141.5 60t57.5 142h-2v98h57zM485 380v20h-357v98q0 45 29 74.5t73 27.5q45 -3 72.5 -30t25.5 -72h20q4 50 -32.5 86t-85.5 36q-54 0 -88 -34.5
t-34 -87.5v-118h377z" />
    <glyph glyph-name="quotesingle" unicode="'" horiz-adv-x="168" 
d="M124 685l20 -3l-24 -151l-20 3zM81 537l-20 3l24 151l20 -3zM41 543l-20 3l24 151l20 -3z" />
    <glyph glyph-name="parenleft" unicode="(" horiz-adv-x="207" 
d="M179 -68v25q-44 11 -81 46q-55 53 -55 124v441q0 72 55 124q36 34 81 46v25q-53 -13 -96 -55q-60 -59 -60 -140v-441q0 -80 61 -140q43 -43 95 -55zM179 -25v22q-29 9 -54 32q-42 41 -42 98v441q0 58 42 97q24 23 54 33v23q-40 -11 -70 -42q-46 -47 -46 -116v-436
q0 -65 48 -113q31 -29 68 -39zM179 17v21q-15 7 -28 18q-28 27 -28 71v441q0 44 29 71q12 11 27 18v22q-24 -9 -42 -28q-34 -35 -34 -88v-436q0 -50 36 -84q18 -17 40 -26z" />
    <glyph glyph-name="parenright" unicode=")" horiz-adv-x="203" 
d="M25 -68v25q44 11 81 46q55 53 55 124v441q0 72 -55 124q-36 34 -81 46v25q53 -13 96 -55q60 -59 60 -140v-441q0 -80 -61 -140q-43 -43 -95 -55zM25 -25v22q29 9 54 32q42 41 42 98v441q0 58 -42 97q-24 23 -54 33v23q40 -11 70 -42q46 -47 46 -116v-436q0 -65 -48 -113
q-31 -29 -68 -39zM25 17v21q15 7 28 18q28 27 28 71v441q0 44 -29 71q-12 11 -27 18v22q24 -9 42 -28q34 -35 34 -88v-436q0 -50 -36 -84q-18 -17 -40 -26z" />
    <glyph glyph-name="asterisk" unicode="*" horiz-adv-x="573" 
d="M566 399l-173 -126l66 -203l-173 126l-172 -126l66 203l-173 126h213l66 203l66 -203h214zM495 376h-159l-50 152l-49 -152h-159l129 -93l-49 -151l128 93l129 -93l-49 151zM442 359l-96 -70l36 -112l-96 69l-95 -69l36 112l-96 70h119l36 113l37 -113h119zM386 343h-76
l-24 72l-23 -72h-77l62 -45l-23 -73l61 45l62 -45l-23 73z" />
    <glyph glyph-name="plus" unicode="+" horiz-adv-x="341" 
d="M179 370v155h-20v-155h-150v-20h150v-148h20v148h153v20h-153zM332 390v20h-113v115h-20v-135h133zM139 525h-20v-115h-110v-20h130v135zM219 202v108h113v20h-133v-128h20zM9 310h110v-108h20v128h-130v-20z" />
    <glyph glyph-name="comma" unicode="," horiz-adv-x="136" 
d="M81 43q-9 -13 -20 -5q-9 7 0 19q5 8 15 2q11 -8 5 -16zM52 2q-34 12 -34 48q0 17 10 30q15 22 42 22q16 0 29 -10q22 -15 22 -42q0 -16 -9 -29l-55 -77l-17 12l55 77q5 8 5 17q0 12 -10 21.5t-23 9.5q-29 0 -29 -31q0 -28 26 -31z" />
    <glyph glyph-name="hyphen" unicode="-" horiz-adv-x="251" 
d="M236 330v-20h-203v20h203zM33 350v20h203v-20h-203zM33 390v20h203v-20h-203z" />
    <glyph glyph-name="period" unicode="." horiz-adv-x="150" 
d="M23 51q0 21 15 36t36 15t36 -15t15 -36q0 -22 -15 -36.5t-36 -14.5t-36 14.5t-15 36.5zM43 51q0 -13 9 -23t22 -10q12 0 21 10t9 23q0 29 -29 28q-32 1 -32 -28zM63 51q0 10 11 10q13 0 13 -10q0 -15 -13 -15q-11 0 -11 15z" />
    <glyph glyph-name="slash" unicode="/" horiz-adv-x="359" 
d="M334 701h20l-251 -699h-19zM295 701h20l-251 -699h-20zM256 701h19l-250 -699h-20z" />
    <glyph glyph-name="zero" unicode="0" horiz-adv-x="452" 
d="M406 197v301q0 73 -55.5 125t-129.5 52q-68 0 -122 -54t-54 -123v-301q0 -69 53.5 -125.5t122.5 -56.5q75 1 130 54t55 128zM426 197q0 -85 -59.5 -143.5t-145.5 -58.5q-78 0 -136.5 61t-58.5 141v301q0 84 56 140.5t139 56.5q82 0 143.5 -56t61.5 -141v-301zM386 197
q0 -68 -48.5 -118t-116.5 -45q-61 -4 -109 50q-46 51 -46 113v301q0 64 45.5 113t109.5 44q66 5 115.5 -43t49.5 -114v-301zM366 197v301q0 58 -42.5 97.5t-102.5 39.5q-59 0 -97 -39t-38 -98v-301q0 -56 40 -99t95 -43q59 0 102 41.5t43 100.5zM346 197q0 -52 -37 -87.5
t-88 -35.5q-47 0 -81 37.5t-34 85.5v301q0 49 33 84.5t82 32.5q54 3 89.5 -30.5t35.5 -86.5v-301zM326 197v301q0 46 -28.5 71.5t-76.5 25.5q-44 0 -69.5 -26t-25.5 -71v-301q0 -42 27 -71.5t68 -32.5q105 7 105 104z" />
    <glyph glyph-name="one" unicode="1" horiz-adv-x="238" 
d="M144 659v-658h20v702h-7l-123 -141l14 -13zM184 703v-702h20v702h-20zM79 522l25 28v-549h20v603l-60 -69zM131 703h-27l-100 -115l14 -13z" />
    <glyph glyph-name="two" unicode="2" horiz-adv-x="448" 
d="M228 344q-61 1 -101.5 -42t-40.5 -108l-1 -133h326v-20h-344v153q0 69 43 118q48 54 118 52q62 -2 104 42.5t42 107.5q0 55 -44.5 94t-100.5 39q-59 0 -101.5 -42t-39.5 -100h-20q-4 66 44.5 114t115.5 51q64 1 114 -45t50 -109q0 -71 -47 -123t-117 -49zM228 384
q-76 1 -128.5 -56.5t-52.5 -133.5v-173h364v-20h-384v193q0 90 56.5 150t144.5 60q48 0 78.5 29.5t26.5 77.5q-3 44 -31.5 69.5t-72.5 25.5q-46 0 -74.5 -27.5t-26.5 -73.5h-20q-4 49 33.5 86t87.5 38q47 0 82.5 -34t39.5 -81q4 -53 -33 -92.5t-90 -37.5zM150 274
q-23 -23 -23 -80v-93h284v-20h-304v113q0 58 31 91q37 40 90 39q77 -2 130 56t51 136q-2 68 -56.5 120t-123.5 52q-72 0 -128 -56t-53 -127h-20q-1 83 58 141.5t143 58.5q82 0 140 -54t60 -135q3 -90 -54 -151t-147 -61q-48 0 -78 -30z" />
    <glyph glyph-name="three" unicode="3" horiz-adv-x="480" 
d="M371 502q-1 -58 -42 -91q-36 -30 -90 -30h-1v19h1q46 0 77 25q35 28 35 77q0 48 -36 77q-33 26 -80 26q-46 0 -77 -26q-35 -28 -35 -77v-1h-20v1q0 58 38 89q34 29 93 29q60 0 96 -29q41 -31 41 -89zM371 191q-1 -53 -42 -84q-36 -28 -90 -28t-92 29q-43 30 -44 82h20
q0 -90 111 -90q49 0 80 20q37 24 37 71q0 44 -33.5 76.5t-77.5 32.5h-2v21q53 -1 91 -33q43 -36 42 -97zM391 502q1 66 -47 104q-42 34 -105 34t-108 -35q-49 -39 -48 -103v-1h-20v1q0 69 52 114q49 44 119 44q71 0 122 -43q55 -46 55 -115q0 -43 -23 -88q-26 -48 -61 -64
q42 -22 66 -66t24 -93q0 -70 -55 -112q-51 -39 -122 -39q-72 0 -125 39q-58 42 -58 111h24q0 -62 48 -98q43 -32 106 -32t108 33q50 37 50 98q0 43 -20.5 82.5t-57.5 54.5q-27 11 -77 11v19q56 0 72 6q38 13 61 56q20 37 20 82zM432 191q1 49 -8 79q-12 34 -43 66
q-10 10 -10 16q0 5 13 17q22 20 35 61q12 37 12 72q0 85 -54 133q-51 45 -137 45q-88 0 -141 -45q-55 -48 -55 -133v-1h-20v1q-1 94 58 147q57 51 152 51q96 0 155 -51q63 -54 62 -147q0 -43 -14 -83q-16 -47 -44 -69q60 -38 60 -159q0 -94 -61 -144q-57 -47 -152 -47
q-96 0 -155 47q-62 50 -63 143h21q2 -83 55 -127q52 -43 136 -43q85 0 139 42q57 46 59 129z" />
    <glyph glyph-name="four" unicode="4" horiz-adv-x="397" 
d="M206 424l-66 -178h66v178zM286 1v165h95v-20h-75v-145h-20zM306 224h-20v478h20v-456h75v-20h-75v-2zM113 226l114 301v-301h-114zM211 702h21l-199 -536h193v-165h-20v145h-200zM87 206h159v438zM251 702h15v-496h115v-20h-115v-185h-20v185h-186z" />
    <glyph glyph-name="five" unicode="5" horiz-adv-x="449" 
d="M129 379h100v-1h1q77 2 130 -56.5t51 -135.5q-2 -69 -56.5 -120.5t-123.5 -51.5q-72 0 -128 55.5t-53 127.5h-20q-1 -84 58 -141.5t143 -57.5q82 0 140 53.5t60 134.5q3 90 -54 151t-147 61h-101v203h271v20h-291v-244h20v2zM69 339h160v-1h1q62 2 104 -43t42 -107
q0 -56 -44.5 -94.5t-100.5 -38.5q-59 0 -101.5 41.5t-39.5 100.5h-20q-4 -66 44.5 -114.5t115.5 -50.5q64 -2 114 44t50 110q0 70 -47 122t-117 50h-142v283h312v20h-331v-322zM49 681h351v20h-371v-404h200v1h1q48 0 78.5 -29.5t26.5 -77.5q-3 -44 -31.5 -69.5t-72.5 -25.5
q-46 0 -74.5 27.5t-26.5 73.5h-20q-4 -50 33.5 -86.5t87.5 -37.5q47 0 82.5 34t39.5 81q4 53 -33 92t-90 38h-181v363z" />
    <glyph glyph-name="six" unicode="6" horiz-adv-x="453" 
d="M388 202q3 65 -45 115t-113 49q-52 -4 -69.5 -14t-29.5 -19t-23.5 -24t-20.5 -37v231q0 58 42 97.5t100 39.5q57 0 99 -42.5t39 -99.5h20q4 65 -44.5 114.5t-113.5 49.5q-69 0 -115.5 -47.5t-46.5 -116.5v-301q0 -65 48.5 -113t113.5 -46q66 2 114 50.5t44 113.5h1z
M129 308q41 36 101 36q57 0 98.5 -42.5t39.5 -99.5h-1q3 -58 -38.5 -99t-99.5 -43q-57 -2 -99.5 39t-42.5 98q0 40 12 64.5t30 46.5zM126 352q18 14 36 22.5t68 9.5q72 3 126.5 -54.5t51.5 -127.5h-1q3 -71 -52 -126t-126 -56t-126.5 52.5t-55.5 124.5v306q0 72 55 124
t127 53q70 1 125.5 -55.5t52.5 -126.5h20q2 80 -58.5 143.5t-139.5 62.5q-81 -1 -141.5 -60.5t-60.5 -140.5v-306q0 -80 61 -140.5t141 -59.5q81 1 140.5 63t57.5 142h1q3 82 -56.5 144.5t-141.5 61.5q-71 -1 -103 -34v129q0 44 29 71t73 26q45 -1 72.5 -29.5t25.5 -72.5h20
q4 49 -32 86t-86 37q-53 1 -87.5 -34.5t-34.5 -88.5v-166zM348 202q4 49 -32.5 86t-85.5 37q-46 0 -76 -25q-18 -15 -32 -36.5t-15 -66.5q0 -50 36 -84t86 -34t86 37t32 86h1zM328 202h-1q2 -44 -26 -73t-72 -29q-45 0 -73.5 26.5t-28.5 70.5q-5 42 22.5 75.5t80.5 31.5
q44 -1 72 -29.5t26 -72.5z" />
    <glyph glyph-name="seven" unicode="7" horiz-adv-x="380" 
d="M375 700l-251 -698h-19l243 678h-333v20h360zM15 640v20h306l-236 -658h-20l229 638h-279zM46 2h-20l215 598h-226v20h253z" />
    <glyph glyph-name="eight" unicode="8" horiz-adv-x="484" 
d="M85 350q-56 45 -57 152q-1 94 58 147q57 51 152 51q96 0 155 -51q63 -54 62 -147q0 -43 -14 -83q-16 -47 -44 -69q60 -38 60 -159q0 -94 -61 -144q-57 -47 -152 -47q-96 0 -155 47q-63 51 -63 144q0 121 59 159zM436 191q1 49 -8 79q-12 34 -43 66q-10 10 -10 16
q0 5 13 17q22 20 35 61q12 37 12 72q0 85 -54 133q-51 45 -137 45q-88 0 -141 -45q-55 -48 -55 -133q0 -35 10 -72q14 -41 36 -61q13 -12 13 -17q0 -6 -10 -16q-32 -32 -42 -66q-9 -30 -8 -79q1 -83 55 -128q52 -43 136 -43q85 0 139 42q57 46 59 129zM151 350
q-36 16 -61 64q-23 45 -23 88q0 69 52 114q49 44 119 44q71 0 122 -43q55 -46 55 -115q0 -43 -23 -88q-26 -48 -61 -64q42 -22 66 -66t24 -93q0 -70 -55 -112q-51 -39 -122 -39q-72 0 -125 39q-58 43 -58 112q0 49 24 93t66 66zM395 502q1 65 -47 104q-42 34 -105 34
t-108 -35q-49 -39 -48 -103q0 -44 20 -82q23 -43 61 -56q16 -6 73 -6t73 6q38 13 61 56q20 37 20 82zM397 191q0 43 -20.5 82.5t-57.5 54.5q-27 11 -78 11t-78 -11q-37 -15 -57.5 -54.5t-20.5 -82.5q0 -62 48 -99q43 -32 106 -32t108 33q50 37 50 98zM375 502
q-1 -58 -42 -91q-36 -30 -90 -30t-93 31q-43 34 -43 90q0 58 38 89q34 29 93 29q60 0 96 -29q41 -31 41 -89zM375 191q-1 -53 -42 -84q-36 -28 -90 -28t-92 29q-43 31 -44 83q-2 62 40 98q36 32 91 32q56 0 95 -33q43 -36 42 -97zM355 502q0 48 -36 77q-33 26 -80 26
q-46 0 -77 -26q-35 -28 -35 -77q0 -48 36 -77q33 -25 80 -25q46 0 77 25q35 28 35 77zM355 191q0 44 -33.5 76.5t-77.5 32.5q-45 0 -81 -32.5t-36 -76.5q0 -91 111 -91q49 0 80 20q37 24 37 71z" />
    <glyph glyph-name="nine" unicode="9" horiz-adv-x="453" 
d="M64 498q-3 -65 45 -115t113 -49q52 4 69.5 14t29.5 19t23.5 24t20.5 37v-231q0 -58 -42 -97.5t-100 -39.5q-57 0 -99 42.5t-39 99.5h-20q-4 -65 44.5 -114.5t113.5 -49.5q69 0 115.5 47.5t46.5 116.5v301q0 65 -48.5 113t-113.5 46q-66 -2 -114 -50.5t-44 -113.5h-1z
M323 392q-41 -36 -101 -36q-57 0 -98.5 42.5t-39.5 99.5h1q-3 58 38.5 99t99.5 43q57 2 99.5 -39t42.5 -98q0 -40 -12 -64.5t-30 -46.5zM326 348q-18 -14 -36 -22.5t-68 -9.5q-72 -3 -126.5 54.5t-51.5 127.5h1q-3 71 52 126t126 56t126.5 -52.5t55.5 -124.5v-306
q0 -72 -55 -124t-127 -53q-70 -1 -125.5 55.5t-52.5 126.5h-20q-2 -80 58.5 -143.5t139.5 -62.5q81 1 141.5 60.5t60.5 140.5v306q0 80 -61 140.5t-141 59.5q-81 -1 -140.5 -63t-57.5 -142h-1q-3 -82 56.5 -144.5t141.5 -61.5q71 1 103 34v-129q0 -44 -29 -71t-73 -26
q-45 1 -72.5 29.5t-25.5 72.5h-20q-4 -49 32 -86t86 -37q53 -1 87.5 34.5t34.5 88.5v166zM104 498q-4 -49 32.5 -86t85.5 -37q46 0 76 25q18 15 32 36.5t15 66.5q0 50 -36 84t-86 34t-86 -37t-32 -86h-1zM124 498h1q-2 44 26 73t72 29q45 0 73.5 -26.5t28.5 -70.5
q5 -42 -22.5 -75.5t-80.5 -31.5q-44 1 -72 29.5t-26 72.5z" />
    <glyph glyph-name="colon" unicode=":" horiz-adv-x="156" 
d="M26 51q0 21 15 36t36 15t36 -15t15 -36q0 -22 -15 -36.5t-36 -14.5t-36 14.5t-15 36.5zM46 51q0 -13 9 -23t22 -10q12 0 21 10t9 23q0 29 -30 29q-31 0 -31 -29zM66 51q0 10 11 10q13 0 13 -10q0 -15 -13 -15q-11 0 -11 15zM26 301q0 21 15 36t36 15t36 -15t15 -36
q0 -22 -15 -37t-36 -15t-36 15t-15 37zM46 301q0 -13 9 -23t22 -10q12 0 21 10t9 23q0 29 -30 29q-31 0 -31 -29zM66 301q0 10 11 10q13 0 13 -10q0 -15 -13 -15q-11 0 -11 15z" />
    <glyph glyph-name="semicolon" unicode=";" horiz-adv-x="139" 
d="M121 301q0 -22 -15 -37t-36 -15t-36 15t-15 37q0 21 15 36t36 15t36 -15t15 -36zM100 301q0 29 -30 29q-31 0 -31 -29q0 -13 9 -23t22 -10q12 0 21 10t9 23zM83 301q0 -15 -13 -15q-11 0 -11 15q0 10 11 10q13 0 13 -10zM52 2l12 17q-26 3 -26 31q0 31 29 31
q13 0 23 -9.5t10 -21.5q0 -9 -5 -17l-55 -77l17 -12l55 77q9 13 9 29q0 27 -22 42q-13 10 -29 10q-27 0 -42 -22q-10 -13 -10 -30q0 -36 34 -48zM81 43q6 8 -5 16q-10 6 -15 -2q-9 -12 0 -19q11 -8 20 5z" />
    <glyph glyph-name="equal" unicode="=" horiz-adv-x="324" 
d="M311 400v-20h-298v20h298zM13 420v20h298v-20h-298zM13 460v20h298v-20h-298zM311 220v-20h-298v20h298zM13 240v20h298v-20h-298zM13 280v20h298v-20h-298z" />
    <glyph glyph-name="question" unicode="?" horiz-adv-x="449" 
d="M220 261q21 38 57 48q87 25 124.5 99.5t9.5 160.5q-24 77 -95 112.5t-150 13.5q-80 -24 -120.5 -96.5t-16.5 -152.5l19 6q-22 67 16 136.5t107 89.5q66 19 133 -15.5t88 -99.5q24 -74 -11 -144.5t-109 -90.5q-42 -11 -62 -55q-18 -40 2 -88h21q-23 51 -13 76zM266 348
q68 16 98.5 79t11.5 131q-18 61 -79 91t-122 12q-63 -22 -96.5 -81.5t-10.5 -121.5l19 5q-19 55 10 107t86 69q53 15 107 -10t69 -77q17 -61 -10.5 -115.5t-87.5 -69.5q-59 -15 -86 -77q-22 -52 -6 -105h21q-18 52 3 97q24 52 73 66zM255 386q51 13 75.5 61t6.5 98
q-17 44 -60.5 67t-88.5 10q-48 -15 -74 -61t-8 -92l19 5q-15 44 5 78.5t64 46.5q42 13 76.5 -3.5t49.5 -58.5q18 -45 -3.5 -81.5t-67.5 -50.5q-75 -22 -110 -95q-28 -59 -11 -125h21q-16 57 10 114q32 70 96 87zM143 51q0 -22 15 -36.5t36 -14.5t36 14.5t15 36.5
q0 21 -15 36t-36 15t-36 -15t-15 -36zM163 51q0 29 31 29q30 0 30 -29q0 -13 -9 -23t-21 -10q-13 0 -22 10t-9 23zM183 51q0 -15 11 -15q13 0 13 15q0 10 -13 10q-11 0 -11 -10z" />
    <glyph glyph-name="A" unicode="A" 
d="M90 502v-141h280v137q0 59 -40.5 100.5t-99.5 41.5q-57 0 -98.5 -40.5t-41.5 -97.5zM90 341v-341h-20v498q0 68 46 115.5t114 48.5q65 1 112.5 -47t47.5 -113v-502h-20v341h-280zM130 502v-101h200v101q0 45 -29 72t-74 26q-44 -1 -70.5 -27.5t-26.5 -70.5zM110 381v117
q0 52 34 87.5t86 35.5t86 -35.5t34 -87.5v-117h-240zM50 502v-502h-20v500q0 84 58.5 141t142.5 57q83 0 141 -57.5t58 -140.5v-500h-20v502q0 70 -54.5 124t-124.5 54q-71 0 -126 -53.5t-55 -124.5zM130 301v-301h-20v321h240v-321h-20v301h-200z" />
    <glyph glyph-name="B" unicode="B" horiz-adv-x="463" 
d="M230 100q49 0 76 28t27 75q0 39 -29 67.5t-48.5 29t-122.5 0.5v-200h97zM230 400q48 0 75 27t28 75q1 45 -28 71.5t-75 26.5h-97v-200h97zM113 320q-1 0 62 0h62q57 0 91 -37q30 -35 30 -84q0 -48 -30 -82q-34 -37 -92 -37h-123v240zM236 620q54 0 86 -36.5t32 -85.5
q0 -74 -64 -104q-28 -14 -60 -14h-117v240h123zM230 60q58 0 100.5 39.5t42.5 97.5q0 43 -18 78q-21 38 -58 53q-22 9 -61 11v1h-143v-280h137zM230 359q50 1 62 5q9 3 24 13q55 40 57 122q1 56 -40 98.5t-97 42.5h-143v-280h137v-1zM312 350q42 -29 62 -66.5t20 -81.5
q0 -75 -50 -118.5t-108 -43.5h-163v620h163q57 0 108.5 -47t48.5 -115q-5 -103 -81 -148zM230 20q69 0 123 49t61 118q5 54 -11 93q-12 30 -40 56q-10 9 -10 16q0 6 13.5 17.5t27.5 42.5q19 42 19 90q0 68 -54.5 123t-122.5 55h-183v-660h177zM377 350q61 -47 58 -148
q-3 -81 -58 -140q-58 -62 -147 -62h-197v700h204q81 0 139 -60.5t57 -141.5q-1 -95 -56 -148z" />
    <glyph glyph-name="C" unicode="C" horiz-adv-x="463" 
d="M347 202q4 -49 -32 -86t-86 -37t-86 34t-36 84v301q0 53 34.5 88.5t87.5 34.5q50 0 86 -37t32 -86h-20q2 44 -25.5 72.5t-72.5 29.5q-44 1 -73 -26t-29 -71v-306q0 -44 28.5 -70.5t73.5 -26.5q44 0 72 29t26 73h20zM387 202q4 -65 -44 -113.5t-114 -50.5
q-65 -2 -113.5 46t-48.5 113v301q0 69 46.5 116.5t115.5 47.5q65 0 113.5 -49.5t44.5 -114.5h-20q3 57 -39 99.5t-99 42.5q-58 0 -100 -39.5t-42 -97.5v-306q0 -57 42.5 -98t99.5 -39q58 2 99.5 43t38.5 99h20zM427 202q2 -80 -57.5 -142t-140.5 -63q-80 -1 -141 59.5
t-61 140.5v306q0 81 60.5 140.5t141.5 60.5q79 1 139.5 -62.5t58.5 -143.5h-20q3 70 -52.5 126.5t-125.5 55.5q-72 -1 -127 -53t-55 -124v-306q0 -71 55.5 -124.5t126.5 -52.5t126 56t52 126h20z" />
    <glyph glyph-name="D" unicode="D" 
d="M53 20h182q69 0 123.5 54t54.5 123v306q0 71 -55.5 124t-127.5 53h-177v-660zM236 0h-203v700h203q84 -4 140.5 -61t56.5 -141v-301q0 -81 -57.5 -137.5t-139.5 -59.5zM236 0h-6h6zM93 60h137q59 0 101 39.5t42 97.5v301q0 61 -41 101.5t-102 40.5h-137v-580zM393 202
q0 -64 -46 -115q-48 -54 -111 -47h-163v620h163q61 7 109 -44t48 -113v-301zM133 100h97q48 0 75.5 27t27.5 75v301q0 45 -29 71t-74 26h-97v-500zM353 197q4 -45 -34 -83t-83 -34h-123v540h123q52 0 84.5 -35t32.5 -87v-301z" />
    <glyph glyph-name="E" unicode="E" horiz-adv-x="454" 
d="M232 20q71 1 126 56.5t52 125.5h20q2 -82 -57.5 -142t-141.5 -60q-83 0 -143 59t-60 141v298q0 89 59 146.5t143 56.5q83 -2 143.5 -60.5t54.5 -142.5h-20q3 70 -52.5 126t-125.5 56q-72 0 -127 -55t-55 -127v-298q0 -76 53.5 -129t130.5 -51zM233 99q40 2 67 28.5
t30 74.5h20q-1 -52 -34 -85.5t-81 -36.5q-55 -3 -91 31.5t-36 88.5v120h190v-20h-170v-100q0 -49 27.5 -76t77.5 -25zM235 60q56 3 95 42t40 100h20q2 -67 -44.5 -114.5t-113.5 -49.5q-70 -1 -117 46t-47 116v298q0 68 47 116.5t115 47.5q66 -2 114 -50t44 -114h-20
q3 57 -39 99.5t-99 42.5q-58 0 -100 -42t-42 -100v-138h210v-20h-210v-140q0 -63 41 -103t106 -37zM348 498h-20q2 45 -25.5 72t-72.5 30q-44 2 -73 -27.5t-29 -74.5v-98h170v-20h-190v118q0 53 34 87.5t88 34.5q49 0 85.5 -36t32.5 -86z" />
    <glyph glyph-name="F" unicode="F" horiz-adv-x="438" 
d="M110 0h20v300h172v20h-192v-320zM90 0h-20v498q0 68 47 116.5t115 47.5q66 -2 114 -50t44 -114h-20q3 57 -39 99.5t-99 42.5q-59 0 -100.5 -40t-41.5 -98v-142h212v-20h-212v-340zM50 0h-20v500q0 89 59 145.5t143 55.5q83 -2 143.5 -60.5t54.5 -142.5h-20
q3 70 -52.5 126t-125.5 56q-72 0 -127 -53t-55 -125v-502zM350 498q4 50 -32.5 86t-85.5 36q-54 0 -88 -34.5t-34 -87.5v-118h192v20h-172v102q0 44 28.5 72t73.5 26q45 -3 72.5 -30t25.5 -72h20z" />
    <glyph glyph-name="G" unicode="G" horiz-adv-x="454" 
d="M387 197q0 -66 -46 -111.5t-112 -47.5q-65 -2 -113.5 46t-48.5 113v301q0 69 46.5 116.5t115.5 47.5q65 0 113.5 -49.5t44.5 -114.5h-20q3 57 -39 99.5t-99 42.5q-58 0 -100 -39.5t-42 -97.5v-306q0 -57 42.5 -98t99.5 -39q74 3 110 52q28 37 28 85v143h-142v20h162v-163
zM427 197q0 -80 -59 -139.5t-139 -60.5t-141 59.5t-61 140.5v306q0 80 60.5 138t141.5 60q80 1 140 -61.5t58 -141.5h-20q3 70 -52.5 126.5t-125.5 55.5q-72 -1 -127 -53t-55 -124v-306q0 -71 55.5 -124.5t126.5 -52.5q88 1 139 68q39 52 39 109v183h-182v20h202v-203z
M327 197v103h-102v20h122v-123q0 -50 -34.5 -84t-83.5 -34q-50 0 -86 34t-36 84v301q0 53 34.5 88.5t87.5 34.5q50 0 86 -37t32 -86h-20q2 44 -25.5 72.5t-72.5 29.5q-44 1 -73 -26t-29 -71v-306q0 -44 28.5 -70.5t73.5 -26.5q98 0 98 97z" />
    <glyph glyph-name="H" unicode="H" horiz-adv-x="465" 
d="M432 0h-20v702h20v-702zM112 380v322h20v-302h200v302h20v-322h-240zM92 340v-340h-20v702h20v-342h280v342h20v-702h-20v340h-280zM52 0h-20v702h20v-702zM132 300v-300h-20v320h240v-320h-20v300h-200z" />
    <glyph glyph-name="I" unicode="I" horiz-adv-x="166" 
d="M32 703h20v-702h-20v702zM92 703h-20v-702h20v702zM132 703h-20v-702h20v702z" />
    <glyph glyph-name="J" unicode="J" horiz-adv-x="432" 
d="M82 202h20q-2 -46 28.5 -75t76.5 -27q42 2 68.5 28.5t26.5 68.5v506h20v-506q0 -50 -31.5 -82.5t-82.5 -35.5q-52 -3 -91 34t-35 89zM42 202h20q-3 -60 42.5 -103t105.5 -39q57 3 94.5 41.5t37.5 95.5v506h20v-506q0 -66 -44 -111t-110 -48q-67 -3 -118.5 47t-47.5 117z
M2 202h20q-3 -73 56 -129.5t132 -52.5q68 3 120 56t52 121v506h20v-506q0 -78 -57 -136t-135 -61q-86 -2 -147 57t-61 145z" />
    <glyph glyph-name="K" unicode="K" horiz-adv-x="462" 
d="M431 0h-20v202q0 93 -50 134q-10 8 -10 16q0 9 13 17q18 18 28 43q19 36 19 86v204h20v-204q0 -94 -56 -148q56 -42 56 -148v-202zM233 380h-122v322h20v-302h100q46 0 73 28t27 74v200h20v-200q0 -54 -32.5 -88t-85.5 -34zM233 340h-142v-340h-20v702h20v-342h140
q33 0 59 4q81 35 81 134v204h20v-200q0 -70 -34 -111q-28 -33 -61 -44q95 -30 95 -149v-198h-20v202q0 90 -76 126q-42 12 -62 12zM51 0h-20v702h20v-702zM351 0h-20v198q0 40 -29 71t-69 31h-102v-300h-20v320h122q49 0 83.5 -37t34.5 -86v-197z" />
    <glyph glyph-name="L" unicode="L" horiz-adv-x="290" 
d="M111 702h20v-602h157v-20h-177v622zM91 60h197v-20h-217v662h20v-642zM51 20h237v-20h-257v702h20v-682z" />
    <glyph glyph-name="M" unicode="M" horiz-adv-x="660" 
d="M319 0v502q0 44 -28 87q-34 52 -88 52q-46 0 -80 -33t-34 -86v-522h-19v522q0 66 39 104q36 36 94 36q46 0 80 -28.5t46 -69.5q12 41 47 69.5t80 28.5q57 0 95.5 -37t38.5 -103v-522h-20v522q0 53 -34 86t-80 33q-55 0 -89 -52q-28 -43 -28 -87v-502h-20zM310 633
q-34 46 -107 46q-68 0 -109 -37q-44 -42 -44 -120v-522h-20v522q0 84 50 133q46 46 123 46q75 0 126 -57q51 57 127 57q77 0 124 -46q50 -49 50 -133v-522h-20v522q0 78 -46 120q-40 37 -108 37q-41 0 -70 -16q-18 -10 -37 -29q-15 -16 -20 -16q-8 0 -19 15zM109 522v-522
h20v522q0 32 20.5 55t53.5 23t56 -33q20 -30 20 -65v-502h20v502q0 41 -28 79.5t-68 38.5q-38 0 -66 -30.5t-28 -67.5zM550 522v-522h-20v522q0 32 -20.5 55t-53.5 23q-34 0 -55 -31.5t-21 -66.5v-502h-21v502q0 41 28.5 79.5t68.5 38.5q38 0 66 -30.5t28 -67.5z" />
    <glyph glyph-name="N" unicode="N" horiz-adv-x="458" 
d="M349 0h-20v498q0 47 -29 75.5t-76 26.5q-95 -4 -95 -97v-503h-20v498q0 48 32.5 83.5t82.5 38.5q53 3 89 -33t36 -89v-498zM389 0h-20v498q0 59 -42.5 101t-102.5 41q-59 -1 -97 -41.5t-38 -100.5v-498h-20v498q0 65 44.5 112.5t110.5 49.5q67 2 116 -45t49 -112v-503z
M48 0h-19v503q0 82 62 141q59 55 133 56q82 1 143.5 -55t61.5 -142v-503h-20v498q0 76 -56 130.5t-129 51.5q-69 -3 -122 -53q-54 -53 -54 -121v-506z" />
    <glyph glyph-name="O" unicode="O" horiz-adv-x="452" 
d="M406 197v301q0 73 -55.5 125t-129.5 52q-68 0 -122 -54t-54 -123v-301q0 -69 53.5 -125.5t122.5 -56.5q75 1 130 54t55 128zM426 197q0 -85 -59.5 -143.5t-145.5 -58.5q-78 0 -136.5 61t-58.5 141v301q0 84 56 140.5t139 56.5q82 0 143.5 -56t61.5 -141v-301zM386 197
q0 -68 -48.5 -118t-116.5 -45q-61 -4 -109 50q-46 51 -46 113v301q0 64 45.5 113t109.5 44q66 5 115.5 -43t49.5 -114v-301zM366 197v301q0 58 -42.5 97.5t-102.5 39.5q-59 0 -97 -39t-38 -98v-301q0 -56 40 -99t95 -43q59 0 102 41.5t43 100.5zM346 197q0 -52 -37 -87.5
t-88 -35.5q-47 0 -81 37.5t-34 85.5v301q0 49 33 84.5t82 32.5q54 3 89.5 -30.5t35.5 -86.5v-301zM326 197v301q0 46 -28.5 71.5t-76.5 25.5q-44 0 -69.5 -26t-25.5 -71v-301q0 -42 27 -71.5t68 -32.5q105 7 105 104z" />
    <glyph glyph-name="P" unicode="P" horiz-adv-x="436" 
d="M331 500q0 -46 -28 -73t-75 -27h-97v200h97q47 0 75 -27t28 -73zM431 500q0 -84 -59 -142t-144 -58h-97v-300h-20v320h117q73 0 128 53.5t55 126.5t-54.5 126.5t-128.5 53.5h-177v-680h-20v700h197q84 0 143.5 -58t59.5 -142zM351 500q0 52 -35.5 86t-87.5 34h-116v-242
l116 1q53 0 88 34t35 87zM228 360q60 0 101.5 40t41.5 100q0 58 -42.5 99t-100.5 41h-137v-280h137zM391 500q-1 -70 -47 -115t-116 -45h-137v-340h-20v660h157q69 0 116.5 -46t46.5 -114z" />
    <glyph glyph-name="Q" unicode="Q" horiz-adv-x="455" 
d="M300 60q25 16 41 30t27 36q18 35 18 76v301q0 66 -49.5 114t-115.5 43q-64 5 -109.5 -44t-45.5 -113v-301q0 -62 46 -113q48 -54 114 -49h202v20h-128zM279 69q-33 -10 -58 -9q-55 0 -95 43t-40 99v301q0 59 38 98t97 39q60 0 102.5 -39.5t42.5 -97.5v-301
q0 -59 -42 -100h1q-14 -16 -46 -33zM318 123q26 34 28 79v301q0 53 -35.5 86.5t-89.5 30.5q-49 3 -82 -32.5t-33 -84.5v-301q0 -48 34 -85.5t81 -35.5h18q26 1 43 12t36 30zM326 202q-4 -80 -72 -101l-33 -3q-41 3 -68 32.5t-27 71.5v301q0 45 25.5 71t69.5 26
q48 0 76.5 -25.5t28.5 -71.5v-301zM428 80v20h-33q31 45 31 102v301q0 85 -61.5 141t-143.5 56q-83 0 -139 -56.5t-56 -140.5v-301q0 -80 58.5 -141t136.5 -61h207v20h-207q-69 0 -122.5 56.5t-53.5 125.5v301q0 69 54 123t122 54q74 0 129.5 -52t55.5 -125v-301
q0 -49 -12.5 -71t-17 -26.5t-7 -8t-2.5 -8.5q0 -8 10 -8h51z" />
    <glyph glyph-name="R" unicode="R" horiz-adv-x="459" 
d="M331 0v198q0 43 -30.5 72.5t-62.5 29.5h-107v-300h-20v320h135q46 0 75.5 -35t29.5 -87v-198h-20zM411 0v198q0 56 -10 83q-12 32 -40 55q-10 8 -10 16q0 9 13 17q18 18 28 43q17 32 19 86q3 71 -52 126.5t-126 55.5h-182v-680h-20v700h208q79 0 136 -61.5t56 -140.5
q-2 -96 -56 -148q56 -42 56 -152v-198h-20zM331 499q2 44 -26 72.5t-72 28.5h-102v-200h105q90 0 95 99zM351 498q-2 -47 -30 -81q-30 -37 -76 -37h-134v240h128q46 0 80 -37.5t32 -84.5zM371 502q1 55 -41 96.5t-97 41.5h-142v-280h156q20 0 44 4q77 34 80 138zM371 0v198
q0 93 -74 133q-17 9 -47 9h-159v-340h-20v660h168q63 0 109.5 -49.5t42.5 -112.5q-5 -82 -49 -124q-11 -10 -32 -24q81 -56 81 -152v-198h-20z" />
    <glyph glyph-name="S" unicode="S" horiz-adv-x="449" 
d="M424 186q-2 -81 -60 -134.5t-140 -53.5q-84 0 -143 57.5t-58 141.5h20q-3 -72 53 -127.5t128 -55.5q69 0 123.5 51.5t56.5 120.5q2 77 -51 135.5t-130 56.5q-53 -1 -90 38t-33 92q4 47 39.5 81t82.5 34q50 -1 87.5 -37.5t33.5 -86.5h-20q2 46 -26.5 73.5t-74.5 27.5
q-44 0 -72.5 -25.5t-31.5 -69.5q-4 -48 26.5 -77.5t78.5 -29.5q90 0 147 -61t54 -151zM346 188q-4 -47 -39.5 -81t-82.5 -34q-50 1 -87.5 37.5t-33.5 86.5h20q-2 -46 26.5 -73.5t74.5 -27.5q44 0 72.5 25.5t31.5 69.5q4 48 -26.5 77.5t-78.5 29.5q-89 0 -145.5 61t-55.5 151
q2 81 60 135.5t140 54.5q84 0 143.5 -58.5t57.5 -142.5h-20q3 72 -53 127.5t-128 55.5q-69 0 -123.5 -51.5t-56.5 -120.5q-2 -77 51 -135.5t130 -56.5q53 1 90 -38t33 -92zM387 186q0 -64 -50 -110t-114 -44q-67 2 -115.5 50.5t-44.5 114.5h20q-3 -59 39.5 -100.5
t101.5 -41.5q56 0 100.5 38.5t44.5 94.5q0 62 -42 107t-104 43q-69 -2 -116.5 50t-47.5 122q0 64 50 110t114 44q67 -2 115.5 -50.5t44.5 -114.5h-20q3 59 -39.5 100.5t-101.5 41.5q-56 0 -100.5 -38.5t-44.5 -94.5q0 -62 42 -107t104 -43q70 2 117 -50t47 -122z" />
    <glyph glyph-name="T" unicode="T" horiz-adv-x="415" 
d="M197 640v-640h20v640h192v20h-403v-20h191zM237 620v-620h20v600h152v20h-172zM157 600v-600h20v620h-171v-20h151zM6 680h403v20h-403v-20z" />
    <glyph glyph-name="U" unicode="U" horiz-adv-x="456" 
d="M108 701h20v-498q0 -46 29 -75t76 -27q95 5 95 97v503h20v-498q0 -48 -33 -83.5t-82 -38.5q-54 -3 -89.5 33t-35.5 89v498zM68 701h20v-498q0 -59 42.5 -101t102.5 -41q59 1 97 41.5t38 100.5v498h20v-498q0 -65 -45 -112.5t-110 -49.5q-67 -2 -116 45t-49 112v503z
M409 701h19v-503q0 -82 -63 -141q-58 -55 -132 -56q-83 0 -143 54q-62 58 -62 143v503h20v-498q0 -76 55.5 -130t129.5 -52q69 3 122.5 54.5t53.5 119.5v506z" />
    <glyph glyph-name="V" unicode="V" horiz-adv-x="422" 
d="M73 701h-19l148 -699h19q9 43 16 75.5t14 66.5t16 76.5t22.5 105.5t32.5 153.5t47 221.5h-20q-33 -157 -55 -263t-36 -174.5t-21.5 -106.5t-12 -58.5t-7 -30t-6.5 -20.5zM330 701h-20l-99 -468l-99 468h-19q23 -111 39.5 -187t27.5 -128.5t18.5 -86.5t12.5 -59t9.5 -47
t10.5 -51zM260 2l148 699h-20l-147 -699h19zM34 701h-20l148 -699h19z" />
    <glyph glyph-name="W" unicode="W" horiz-adv-x="659" 
d="M340 701v-502q0 -45 27 -87q34 -52 89 -52q46 0 80 33t34 86v522h20v-522q0 -66 -40 -105q-37 -35 -94 -35q-46 0 -82 30q-32 27 -44 68q-13 -41 -46 -68q-37 -30 -81 -30q-58 0 -95 35q-39 39 -39 105v522h20v-522q0 -53 34 -86t80 -33q54 0 89 52q28 43 28 87v502h20z
M349 68q34 -46 107 -46q67 0 108 37q46 42 46 120v522h20v-522q0 -84 -49 -131.5t-125 -47.5t-126 57q-51 -57 -127 -57q-77 0 -124 46q-50 49 -50 133v522h20v-522q0 -78 45 -120q41 -37 109 -37q40 0 70 16q17 9 36 29q15 16 21 16q7 0 19 -15zM550 179v522h-20v-522
q0 -32 -20.5 -55t-53.5 -23q-34 0 -56 33q-20 30 -20 65v502h-20v-502q0 -41 27 -78q29 -40 69 -40q38 0 66 30.5t28 67.5zM109 179v522h20v-522q0 -32 20 -55t54 -23q33 0 56 33q20 30 20 65v502h21v-502q0 -41 -28 -78q-30 -40 -69 -40q-38 0 -66 30.5t-28 67.5z" />
    <glyph glyph-name="X" unicode="X" horiz-adv-x="398" 
d="M294 701l-86 -240q-3 -10 -10 -10q-6 0 -9 10l-86 240h19l76 -213l77 213h19zM373 2h-20l-123 349l8 28l115 322h20l-126 -350zM334 2h-20l-116 322l-115 -322h-20l124 353l-124 346h20l114 -319l18 51l99 268h20l-126 -350zM169 351l-125 -349h-20l125 349l-125 350h20z
M294 2h-19l-77 213l-76 -213h-19l86 240q3 9 10 9q6 0 9 -9z" />
    <glyph glyph-name="Y" unicode="Y" horiz-adv-x="433" 
d="M210 1h20v315q62 6 104 52.5t42 109.5v224h-20v-224q0 -60 -38 -100.5t-97 -41.5q-60 -1 -102.5 41t-42.5 101v224h-20v-229q0 -62 45.5 -108t108.5 -49v-315zM190 1v296q-58 9 -102 54q-52 54 -52 127v224h-20v-229q0 -71 45 -125q43 -50 109 -66v-281h20zM336 478v224
h-20v-229q0 -93 -95 -97q-47 -2 -76 26.5t-29 75.5v224h-20v-224q0 -53 36 -89t89 -33q50 3 82.5 38.5t32.5 83.5zM270 1v283q61 18 103.5 69.5t42.5 119.5v229h-19v-232q0 -66 -50 -117q-43 -43 -97 -53v-299h20z" />
    <glyph glyph-name="Z" unicode="Z" horiz-adv-x="379" 
d="M351 74h-231l218 606h-301v20h328l-218 -606h204v-20zM351 34h-284l217 606h-247v20h274l-217 -606h257v-20zM351 -5h-338l218 605h-194v20h221l-218 -606h311v-19z" />
    <glyph glyph-name="bracketleft" unicode="[" horiz-adv-x="500" 
 />
    <glyph glyph-name="backslash" unicode="\" horiz-adv-x="358" 
d="M353 2h-20l-250 699h19zM314 2h-20l-251 699h20zM274 2h-19l-251 699h20z" />
    <glyph glyph-name="grave" unicode="`" horiz-adv-x="500" 
d="M306 749l-10 -18l-135 70l9 19zM287 713l-9 -18l-136 71l10 18z" />
    <glyph glyph-name="a" unicode="a" 
d="M90 502v-141h280v137q0 59 -40.5 100.5t-99.5 41.5q-57 0 -98.5 -40.5t-41.5 -97.5zM90 341v-341h-20v498q0 68 46 115.5t114 48.5q65 1 112.5 -47t47.5 -113v-502h-20v341h-280zM130 502v-101h200v101q0 45 -29 72t-74 26q-44 -1 -70.5 -27.5t-26.5 -70.5zM110 381v117
q0 52 34 87.5t86 35.5t86 -35.5t34 -87.5v-117h-240zM50 502v-502h-20v500q0 84 58.5 141t142.5 57q83 0 141 -57.5t58 -140.5v-500h-20v502q0 70 -54.5 124t-124.5 54q-71 0 -126 -53.5t-55 -124.5zM130 301v-301h-20v321h240v-321h-20v301h-200z" />
    <glyph glyph-name="b" unicode="b" horiz-adv-x="463" 
d="M230 100q49 0 76 28t27 75q0 39 -29 67.5t-48.5 29t-122.5 0.5v-200h97zM230 400q48 0 75 27t28 75q1 45 -28 71.5t-75 26.5h-97v-200h97zM113 320q-1 0 62 0h62q57 0 91 -37q30 -35 30 -84q0 -48 -30 -82q-34 -37 -92 -37h-123v240zM236 620q54 0 86 -36.5t32 -85.5
q0 -74 -64 -104q-28 -14 -60 -14h-117v240h123zM230 60q58 0 100.5 39.5t42.5 97.5q0 43 -18 78q-21 38 -58 53q-22 9 -61 11v1h-143v-280h137zM230 359q50 1 62 5q9 3 24 13q55 40 57 122q1 56 -40 98.5t-97 42.5h-143v-280h137v-1zM312 350q42 -29 62 -66.5t20 -81.5
q0 -75 -50 -118.5t-108 -43.5h-163v620h163q57 0 108.5 -47t48.5 -115q-5 -103 -81 -148zM230 20q69 0 123 49t61 118q5 54 -11 93q-12 30 -40 56q-10 9 -10 16q0 6 13.5 17.5t27.5 42.5q19 42 19 90q0 68 -54.5 123t-122.5 55h-183v-660h177zM377 350q61 -47 58 -148
q-3 -81 -58 -140q-58 -62 -147 -62h-197v700h204q81 0 139 -60.5t57 -141.5q-1 -95 -56 -148z" />
    <glyph glyph-name="c" unicode="c" horiz-adv-x="462" 
d="M347 202q4 -49 -32 -86t-86 -37t-86 34t-36 84v301q0 53 34.5 88.5t87.5 34.5q50 0 86 -37t32 -86h-20q2 44 -25.5 72.5t-72.5 29.5q-44 1 -73 -26t-29 -71v-306q0 -44 28.5 -70.5t73.5 -26.5q44 0 72 29t26 73h20zM387 202q4 -65 -44 -113.5t-114 -50.5
q-65 -2 -113.5 46t-48.5 113v301q0 69 46.5 116.5t115.5 47.5q65 0 113.5 -49.5t44.5 -114.5h-20q3 57 -39 99.5t-99 42.5q-58 0 -100 -39.5t-42 -97.5v-306q0 -57 42.5 -98t99.5 -39q58 2 99.5 43t38.5 99h20zM427 202q2 -80 -57.5 -142t-140.5 -63q-80 -1 -141 59.5
t-61 140.5v306q0 81 60.5 140.5t141.5 60.5q79 1 139.5 -62.5t58.5 -143.5h-20q3 70 -52.5 126.5t-125.5 55.5q-72 -1 -127 -53t-55 -124v-306q0 -71 55.5 -124.5t126.5 -52.5t126 56t52 126h20z" />
    <glyph glyph-name="d" unicode="d" 
d="M53 20h182q69 0 123.5 54t54.5 123v306q0 71 -55.5 124t-127.5 53h-177v-660zM236 0h-203v700h203q84 -4 140.5 -61t56.5 -141v-301q0 -81 -57.5 -137.5t-139.5 -59.5zM236 0h-6h6zM93 60h137q59 0 101 39.5t42 97.5v301q0 61 -41 101.5t-102 40.5h-137v-580zM393 202
q0 -64 -46 -115q-48 -54 -111 -47h-163v620h163q61 7 109 -44t48 -113v-301zM133 100h97q48 0 75.5 27t27.5 75v301q0 45 -29 71t-74 26h-97v-500zM353 197q4 -45 -34 -83t-83 -34h-123v540h123q52 0 84.5 -35t32.5 -87v-301z" />
    <glyph glyph-name="e" unicode="e" horiz-adv-x="454" 
d="M232 20q71 1 126 56.5t52 125.5h20q2 -82 -57.5 -142t-141.5 -60q-83 0 -143 59t-60 141v298q0 89 59 146.5t143 56.5q83 -2 143.5 -60.5t54.5 -142.5h-20q3 70 -52.5 126t-125.5 56q-72 0 -127 -55t-55 -127v-298q0 -76 53.5 -129t130.5 -51zM233 99q40 2 67 28.5
t30 74.5h20q-1 -52 -34 -85.5t-81 -36.5q-55 -3 -91 31.5t-36 88.5v120h190v-20h-170v-100q0 -49 27.5 -76t77.5 -25zM235 60q56 3 95 42t40 100h20q2 -67 -44.5 -114.5t-113.5 -49.5q-70 -1 -117 46t-47 116v298q0 68 47 116.5t115 47.5q66 -2 114 -50t44 -114h-20
q3 57 -39 99.5t-99 42.5q-58 0 -100 -42t-42 -100v-138h210v-20h-210v-140q0 -63 41 -103t106 -37zM348 498h-20q2 45 -25.5 72t-72.5 30q-44 2 -73 -27.5t-29 -74.5v-98h170v-20h-190v118q0 53 34 87.5t88 34.5q49 0 85.5 -36t32.5 -86z" />
    <glyph glyph-name="f" unicode="f" horiz-adv-x="438" 
d="M110 0h20v300h172v20h-192v-320zM90 0h-20v498q0 68 47 116.5t115 47.5q66 -2 114 -50t44 -114h-20q3 57 -39 99.5t-99 42.5q-59 0 -100.5 -40t-41.5 -98v-142h212v-20h-212v-340zM50 0h-20v500q0 89 59 145.5t143 55.5q83 -2 143.5 -60.5t54.5 -142.5h-20
q3 70 -52.5 126t-125.5 56q-72 0 -127 -53t-55 -125v-502zM350 498q4 50 -32.5 86t-85.5 36q-54 0 -88 -34.5t-34 -87.5v-118h192v20h-172v102q0 44 28.5 72t73.5 26q45 -3 72.5 -30t25.5 -72h20z" />
    <glyph glyph-name="g" unicode="g" horiz-adv-x="454" 
d="M387 197q0 -66 -46 -111.5t-112 -47.5q-65 -2 -113.5 46t-48.5 113v301q0 69 46.5 116.5t115.5 47.5q65 0 113.5 -49.5t44.5 -114.5h-20q3 57 -39 99.5t-99 42.5q-58 0 -100 -39.5t-42 -97.5v-306q0 -57 42.5 -98t99.5 -39q74 3 110 52q28 37 28 85v143h-142v20h162v-163
zM427 197q0 -80 -59 -139.5t-139 -60.5t-141 59.5t-61 140.5v306q0 80 60.5 138t141.5 60q80 1 140 -61.5t58 -141.5h-20q3 70 -52.5 126.5t-125.5 55.5q-72 -1 -127 -53t-55 -124v-306q0 -71 55.5 -124.5t126.5 -52.5q88 1 139 68q39 52 39 109v183h-182v20h202v-203z
M327 197v103h-102v20h122v-123q0 -50 -34.5 -84t-83.5 -34q-50 0 -86 34t-36 84v301q0 53 34.5 88.5t87.5 34.5q50 0 86 -37t32 -86h-20q2 44 -25.5 72.5t-72.5 29.5q-44 1 -73 -26t-29 -71v-306q0 -44 28.5 -70.5t73.5 -26.5q98 0 98 97z" />
    <glyph glyph-name="h" unicode="h" horiz-adv-x="465" 
d="M432 0h-20v702h20v-702zM112 380v322h20v-302h200v302h20v-322h-240zM92 340v-340h-20v702h20v-342h280v342h20v-702h-20v340h-280zM52 0h-20v702h20v-702zM132 300v-300h-20v320h240v-320h-20v300h-200z" />
    <glyph glyph-name="i" unicode="i" horiz-adv-x="166" 
d="M32 703h20v-702h-20v702zM92 703h-20v-702h20v702zM132 703h-20v-702h20v702z" />
    <glyph glyph-name="j" unicode="j" horiz-adv-x="432" 
d="M82 202h20q-2 -46 28.5 -75t76.5 -27q42 2 68.5 28.5t26.5 68.5v506h20v-506q0 -50 -31.5 -82.5t-82.5 -35.5q-52 -3 -91 34t-35 89zM42 202h20q-3 -60 42.5 -103t105.5 -39q57 3 94.5 41.5t37.5 95.5v506h20v-506q0 -66 -44 -111t-110 -48q-67 -3 -118.5 47t-47.5 117z
M2 202h20q-3 -73 56 -129.5t132 -52.5q68 3 120 56t52 121v506h20v-506q0 -78 -57 -136t-135 -61q-86 -2 -147 57t-61 145z" />
    <glyph glyph-name="k" unicode="k" horiz-adv-x="462" 
d="M431 0h-20v202q0 93 -50 134q-10 8 -10 16q0 9 13 17q18 18 28 43q19 36 19 86v204h20v-204q0 -94 -56 -148q56 -42 56 -148v-202zM233 380h-122v322h20v-302h100q46 0 73 28t27 74v200h20v-200q0 -54 -32.5 -88t-85.5 -34zM233 340h-142v-340h-20v702h20v-342h140
q33 0 59 4q81 35 81 134v204h20v-200q0 -70 -34 -111q-28 -33 -61 -44q95 -30 95 -149v-198h-20v202q0 90 -76 126q-42 12 -62 12zM51 0h-20v702h20v-702zM351 0h-20v198q0 40 -29 71t-69 31h-102v-300h-20v320h122q49 0 83.5 -37t34.5 -86v-197z" />
    <glyph glyph-name="l" unicode="l" horiz-adv-x="290" 
d="M111 702h20v-602h157v-20h-177v622zM91 60h197v-20h-217v662h20v-642zM51 20h237v-20h-257v702h20v-682z" />
    <glyph glyph-name="m" unicode="m" horiz-adv-x="660" 
d="M319 0v502q0 44 -28 87q-34 52 -88 52q-46 0 -80 -33t-34 -86v-522h-19v522q0 66 39 104q36 36 94 36q46 0 80 -28.5t46 -69.5q12 41 47 69.5t80 28.5q57 0 95.5 -37t38.5 -103v-522h-20v522q0 53 -34 86t-80 33q-55 0 -89 -52q-28 -43 -28 -87v-502h-20zM310 633
q-34 46 -107 46q-68 0 -109 -37q-44 -42 -44 -120v-522h-20v522q0 84 50 133q46 46 123 46q75 0 126 -57q51 57 127 57q77 0 124 -46q50 -49 50 -133v-522h-20v522q0 78 -46 120q-40 37 -108 37q-41 0 -70 -16q-18 -10 -37 -29q-15 -16 -20 -16q-8 0 -19 15zM109 522v-522
h20v522q0 32 20.5 55t53.5 23t56 -33q20 -30 20 -65v-502h20v502q0 41 -28 79.5t-68 38.5q-38 0 -66 -30.5t-28 -67.5zM550 522v-522h-20v522q0 32 -20.5 55t-53.5 23q-34 0 -55 -31.5t-21 -66.5v-502h-21v502q0 41 28.5 79.5t68.5 38.5q38 0 66 -30.5t28 -67.5z" />
    <glyph glyph-name="n" unicode="n" horiz-adv-x="458" 
d="M349 0h-20v498q0 47 -29 75.5t-76 26.5q-95 -4 -95 -97v-503h-20v498q0 48 32.5 83.5t82.5 38.5q53 3 89 -33t36 -89v-498zM389 0h-20v498q0 59 -42.5 101t-102.5 41q-59 -1 -97 -41.5t-38 -100.5v-498h-20v498q0 65 44.5 112.5t110.5 49.5q67 2 116 -45t49 -112v-503z
M48 0h-19v503q0 82 62 141q59 55 133 56q82 1 143.5 -55t61.5 -142v-503h-20v498q0 76 -56 130.5t-129 51.5q-69 -3 -122 -53q-54 -53 -54 -121v-506z" />
    <glyph glyph-name="o" unicode="o" horiz-adv-x="452" 
d="M406 197v301q0 73 -55.5 125t-129.5 52q-68 0 -122 -54t-54 -123v-301q0 -69 53.5 -125.5t122.5 -56.5q75 1 130 54t55 128zM426 197q0 -85 -59.5 -143.5t-145.5 -58.5q-78 0 -136.5 61t-58.5 141v301q0 84 56 140.5t139 56.5q82 0 143.5 -56t61.5 -141v-301zM386 197
q0 -68 -48.5 -118t-116.5 -45q-61 -4 -109 50q-46 51 -46 113v301q0 64 45.5 113t109.5 44q66 5 115.5 -43t49.5 -114v-301zM366 197v301q0 58 -42.5 97.5t-102.5 39.5q-59 0 -97 -39t-38 -98v-301q0 -56 40 -99t95 -43q59 0 102 41.5t43 100.5zM346 197q0 -52 -37 -87.5
t-88 -35.5q-47 0 -81 37.5t-34 85.5v301q0 49 33 84.5t82 32.5q54 3 89.5 -30.5t35.5 -86.5v-301zM326 197v301q0 46 -28.5 71.5t-76.5 25.5q-44 0 -69.5 -26t-25.5 -71v-301q0 -42 27 -71.5t68 -32.5q105 7 105 104z" />
    <glyph glyph-name="p" unicode="p" horiz-adv-x="436" 
d="M331 500q0 -46 -28 -73t-75 -27h-97v200h97q47 0 75 -27t28 -73zM431 500q0 -84 -59 -142t-144 -58h-97v-300h-20v320h117q73 0 128 53.5t55 126.5t-54.5 126.5t-128.5 53.5h-177v-680h-20v700h197q84 0 143.5 -58t59.5 -142zM351 500q0 52 -35.5 86t-87.5 34h-116v-242
l116 1q53 0 88 34t35 87zM228 360q60 0 101.5 40t41.5 100q0 58 -42.5 99t-100.5 41h-137v-280h137zM391 500q-1 -70 -47 -115t-116 -45h-137v-340h-20v660h157q69 0 116.5 -46t46.5 -114z" />
    <glyph glyph-name="q" unicode="q" horiz-adv-x="455" 
d="M300 60q25 16 41 30t27 36q18 35 18 76v301q0 66 -49.5 114t-115.5 43q-64 5 -109.5 -44t-45.5 -113v-301q0 -62 46 -113q48 -54 114 -49h202v20h-128zM279 69q-33 -10 -58 -9q-55 0 -95 43t-40 99v301q0 59 38 98t97 39q60 0 102.5 -39.5t42.5 -97.5v-301
q0 -59 -42 -100h1q-14 -16 -46 -33zM318 123q26 34 28 79v301q0 53 -35.5 86.5t-89.5 30.5q-49 3 -82 -32.5t-33 -84.5v-301q0 -48 34 -85.5t81 -35.5h18q26 1 43 12t36 30zM326 202q-4 -80 -72 -101l-33 -3q-41 3 -68 32.5t-27 71.5v301q0 45 25.5 71t69.5 26
q48 0 76.5 -25.5t28.5 -71.5v-301zM428 80v20h-33q31 45 31 102v301q0 85 -61.5 141t-143.5 56q-83 0 -139 -56.5t-56 -140.5v-301q0 -80 58.5 -141t136.5 -61h207v20h-207q-69 0 -122.5 56.5t-53.5 125.5v301q0 69 54 123t122 54q74 0 129.5 -52t55.5 -125v-301
q0 -49 -12.5 -71t-17 -26.5t-7 -8t-2.5 -8.5q0 -8 10 -8h51z" />
    <glyph glyph-name="r" unicode="r" horiz-adv-x="459" 
d="M331 0v198q0 43 -30.5 72.5t-62.5 29.5h-107v-300h-20v320h135q46 0 75.5 -35t29.5 -87v-198h-20zM411 0v198q0 56 -10 83q-12 32 -40 55q-10 8 -10 16q0 9 13 17q18 18 28 43q17 32 19 86q3 71 -52 126.5t-126 55.5h-182v-680h-20v700h208q79 0 136 -61.5t56 -140.5
q-2 -96 -56 -148q56 -42 56 -152v-198h-20zM331 499q2 44 -26 72.5t-72 28.5h-102v-200h105q90 0 95 99zM351 498q-2 -47 -30 -81q-30 -37 -76 -37h-134v240h128q46 0 80 -37.5t32 -84.5zM371 502q1 55 -41 96.5t-97 41.5h-142v-280h156q20 0 44 4q77 34 80 138zM371 0v198
q0 93 -74 133q-17 9 -47 9h-159v-340h-20v660h168q63 0 109.5 -49.5t42.5 -112.5q-5 -82 -49 -124q-11 -10 -32 -24q81 -56 81 -152v-198h-20z" />
    <glyph glyph-name="s" unicode="s" horiz-adv-x="449" 
d="M424 186q-2 -81 -60 -134.5t-140 -53.5q-84 0 -143 57.5t-58 141.5h20q-3 -72 53 -127.5t128 -55.5q69 0 123.5 51.5t56.5 120.5q2 77 -51 135.5t-130 56.5q-53 -1 -90 38t-33 92q4 47 39.5 81t82.5 34q50 -1 87.5 -37.5t33.5 -86.5h-20q2 46 -26.5 73.5t-74.5 27.5
q-44 0 -72.5 -25.5t-31.5 -69.5q-4 -48 26.5 -77.5t78.5 -29.5q90 0 147 -61t54 -151zM346 188q-4 -47 -39.5 -81t-82.5 -34q-50 1 -87.5 37.5t-33.5 86.5h20q-2 -46 26.5 -73.5t74.5 -27.5q44 0 72.5 25.5t31.5 69.5q4 48 -26.5 77.5t-78.5 29.5q-89 0 -145.5 61t-55.5 151
q2 81 60 135.5t140 54.5q84 0 143.5 -58.5t57.5 -142.5h-20q3 72 -53 127.5t-128 55.5q-69 0 -123.5 -51.5t-56.5 -120.5q-2 -77 51 -135.5t130 -56.5q53 1 90 -38t33 -92zM387 186q0 -64 -50 -110t-114 -44q-67 2 -115.5 50.5t-44.5 114.5h20q-3 -59 39.5 -100.5
t101.5 -41.5q56 0 100.5 38.5t44.5 94.5q0 62 -42 107t-104 43q-69 -2 -116.5 50t-47.5 122q0 64 50 110t114 44q67 -2 115.5 -50.5t44.5 -114.5h-20q3 59 -39.5 100.5t-101.5 41.5q-56 0 -100.5 -38.5t-44.5 -94.5q0 -62 42 -107t104 -43q70 2 117 -50t47 -122z" />
    <glyph glyph-name="t" unicode="t" horiz-adv-x="415" 
d="M197 640v-640h20v640h192v20h-403v-20h191zM237 620v-620h20v600h152v20h-172zM157 600v-600h20v620h-171v-20h151zM6 680h403v20h-403v-20z" />
    <glyph glyph-name="u" unicode="u" horiz-adv-x="456" 
d="M108 701h20v-498q0 -46 29 -75t76 -27q95 5 95 97v503h20v-498q0 -48 -33 -83.5t-82 -38.5q-54 -3 -89.5 33t-35.5 89v498zM68 701h20v-498q0 -59 42.5 -101t102.5 -41q59 1 97 41.5t38 100.5v498h20v-498q0 -65 -45 -112.5t-110 -49.5q-67 -2 -116 45t-49 112v503z
M409 701h19v-503q0 -82 -63 -141q-58 -55 -132 -56q-83 0 -143 54q-62 58 -62 143v503h20v-498q0 -76 55.5 -130t129.5 -52q69 3 122.5 54.5t53.5 119.5v506z" />
    <glyph glyph-name="v" unicode="v" horiz-adv-x="422" 
d="M73 701h-19l148 -699h19q9 43 16 75.5t14 66.5t16 76.5t22.5 105.5t32.5 153.5t47 221.5h-20q-33 -157 -55 -263t-36 -174.5t-21.5 -106.5t-12 -58.5t-7 -30t-6.5 -20.5zM330 701h-20l-99 -468l-99 468h-19q23 -111 39.5 -187t27.5 -128.5t18.5 -86.5t12.5 -59t9.5 -47
t10.5 -51zM260 2l148 699h-20l-147 -699h19zM34 701h-20l148 -699h19z" />
    <glyph glyph-name="w" unicode="w" horiz-adv-x="659" 
d="M340 701v-502q0 -45 27 -87q34 -52 89 -52q46 0 80 33t34 86v522h20v-522q0 -66 -40 -105q-37 -35 -94 -35q-46 0 -82 30q-32 27 -44 68q-13 -41 -46 -68q-37 -30 -81 -30q-58 0 -95 35q-39 39 -39 105v522h20v-522q0 -53 34 -86t80 -33q54 0 89 52q28 43 28 87v502h20z
M349 68q34 -46 107 -46q67 0 108 37q46 42 46 120v522h20v-522q0 -84 -49 -131.5t-125 -47.5t-126 57q-51 -57 -127 -57q-77 0 -124 46q-50 49 -50 133v522h20v-522q0 -78 45 -120q41 -37 109 -37q40 0 70 16q17 9 36 29q15 16 21 16q7 0 19 -15zM550 179v522h-20v-522
q0 -32 -20.5 -55t-53.5 -23q-34 0 -56 33q-20 30 -20 65v502h-20v-502q0 -41 27 -78q29 -40 69 -40q38 0 66 30.5t28 67.5zM109 179v522h20v-522q0 -32 20 -55t54 -23q33 0 56 33q20 30 20 65v502h21v-502q0 -41 -28 -78q-30 -40 -69 -40q-38 0 -66 30.5t-28 67.5z" />
    <glyph glyph-name="x" unicode="x" horiz-adv-x="398" 
d="M294 701l-86 -240q-3 -10 -10 -10q-6 0 -9 10l-86 240h19l76 -213l77 213h19zM373 2h-20l-123 349l8 28l115 322h20l-126 -350zM334 2h-20l-116 322l-115 -322h-20l124 353l-124 346h20l114 -319l18 51l99 268h20l-126 -350zM169 351l-125 -349h-20l125 349l-125 350h20z
M294 2h-19l-77 213l-76 -213h-19l86 240q3 9 10 9q6 0 9 -9z" />
    <glyph glyph-name="y" unicode="y" horiz-adv-x="433" 
d="M210 1h20v315q62 6 104 52.5t42 109.5v224h-20v-224q0 -60 -38 -100.5t-97 -41.5q-60 -1 -102.5 41t-42.5 101v224h-20v-229q0 -62 45.5 -108t108.5 -49v-315zM190 1v296q-58 9 -102 54q-52 54 -52 127v224h-20v-229q0 -71 45 -125q43 -50 109 -66v-281h20zM336 478v224
h-20v-229q0 -93 -95 -97q-47 -2 -76 26.5t-29 75.5v224h-20v-224q0 -53 36 -89t89 -33q50 3 82.5 38.5t32.5 83.5zM270 1v283q61 18 103.5 69.5t42.5 119.5v229h-19v-232q0 -66 -50 -117q-43 -43 -97 -53v-299h20z" />
    <glyph glyph-name="z" unicode="z" horiz-adv-x="379" 
d="M351 74h-231l218 606h-301v20h328l-218 -606h204v-20zM351 34h-284l217 606h-247v20h274l-217 -606h257v-20zM351 -5h-338l218 605h-194v20h221l-218 -606h311v-19z" />
    <glyph glyph-name="dieresis" unicode="&#xa8;" horiz-adv-x="500" 
d="M95 749q0 21 15 36t36 15t36 -15t15 -36q0 -22 -15 -36.5t-36 -14.5t-36 14.5t-15 36.5zM115 749q0 -13 9 -23t22 -10q12 0 21 10t9 23q0 29 -29 28q-32 1 -32 -28zM135 749q0 10 11 10q13 0 13 -10q0 -15 -13 -15q-11 0 -11 15zM255 749q0 21 15 36t36 15t36 -15t15 -36
q0 -22 -15 -36.5t-36 -14.5t-36 14.5t-15 36.5zM275 749q0 -13 9 -23t22 -10q12 0 21 10t9 23q0 29 -29 28q-32 1 -32 -28zM295 749q0 10 11 10q13 0 13 -10q0 -15 -13 -15q-11 0 -11 15z" />
    <glyph glyph-name="acute" unicode="&#xb4;" horiz-adv-x="500" 
d="M159 749l10 -18l135 70l-9 19zM178 713l9 -18l136 71l-10 18z" />
    <glyph glyph-name="questiondown" unicode="&#xbf;" horiz-adv-x="150" 
d="M220 261q21 38 57 48q87 25 124.5 99.5t9.5 160.5q-24 77 -95 112.5t-150 13.5q-80 -24 -120.5 -96.5t-16.5 -152.5l19 6q-22 67 16 136.5t107 89.5q66 19 133 -15.5t88 -99.5q24 -74 -11 -144.5t-109 -90.5q-42 -11 -62 -55q-18 -40 2 -88h21q-23 51 -13 76zM266 348
q68 16 98.5 79t11.5 131q-18 61 -79 91t-122 12q-63 -22 -96.5 -81.5t-10.5 -121.5l19 5q-19 55 10 107t86 69q53 15 107 -10t69 -77q17 -61 -10.5 -115.5t-87.5 -69.5q-59 -15 -86 -77q-22 -52 -6 -105h21q-18 52 3 97q24 52 73 66zM255 386q51 13 75.5 61t6.5 98
q-17 44 -60.5 67t-88.5 10q-48 -15 -74 -61t-8 -92l19 5q-15 44 5 78.5t64 46.5q42 13 76.5 -3.5t49.5 -58.5q18 -45 -3.5 -81.5t-67.5 -50.5q-75 -22 -110 -95q-28 -59 -11 -125h21q-16 57 10 114q32 70 96 87zM143 51q0 -22 15 -36.5t36 -14.5t36 14.5t15 36.5
q0 21 -15 36t-36 15t-36 -15t-15 -36zM163 51q0 29 31 29q30 0 30 -29q0 -13 -9 -23t-21 -10q-13 0 -22 10t-9 23zM183 51q0 -15 11 -15q13 0 13 15q0 10 -13 10q-11 0 -11 -10z" />
    <glyph glyph-name="Agrave" unicode="&#xc0;" 
d="M90 502v-141h280v137q0 59 -40.5 100.5t-99.5 41.5q-57 0 -98.5 -40.5t-41.5 -97.5zM90 341v-341h-20v498q0 68 46 115.5t114 48.5q65 1 112.5 -47t47.5 -113v-502h-20v341h-280zM130 502v-101h200v101q0 45 -29 72t-74 26q-44 -1 -70.5 -27.5t-26.5 -70.5zM110 381v117
q0 52 34 87.5t86 35.5t86 -35.5t34 -87.5v-117h-240zM50 502v-502h-20v500q0 84 58.5 141t142.5 57q83 0 141 -57.5t58 -140.5v-500h-20v502q0 70 -54.5 124t-124.5 54q-71 0 -126 -53.5t-55 -124.5zM130 301v-301h-20v321h240v-321h-20v301h-200zM306 749l-10 -18l-135 70
l9 19zM287 713l-9 -18l-136 71l10 18z" />
    <glyph glyph-name="Aacute" unicode="&#xc1;" 
d="M90 502v-141h280v137q0 59 -40.5 100.5t-99.5 41.5q-57 0 -98.5 -40.5t-41.5 -97.5zM90 341v-341h-20v498q0 68 46 115.5t114 48.5q65 1 112.5 -47t47.5 -113v-502h-20v341h-280zM130 502v-101h200v101q0 45 -29 72t-74 26q-44 -1 -70.5 -27.5t-26.5 -70.5zM110 381v117
q0 52 34 87.5t86 35.5t86 -35.5t34 -87.5v-117h-240zM50 502v-502h-20v500q0 84 58.5 141t142.5 57q83 0 141 -57.5t58 -140.5v-500h-20v502q0 70 -54.5 124t-124.5 54q-71 0 -126 -53.5t-55 -124.5zM130 301v-301h-20v321h240v-321h-20v301h-200zM159 749l10 -18l135 70
l-9 19zM178 713l9 -18l136 71l-10 18z" />
    <glyph glyph-name="Acircumflex" unicode="&#xc2;" 
d="M90 502v-141h280v137q0 59 -40.5 100.5t-99.5 41.5q-57 0 -98.5 -40.5t-41.5 -97.5zM90 341v-341h-20v498q0 68 46 115.5t114 48.5q65 1 112.5 -47t47.5 -113v-502h-20v341h-280zM130 502v-101h200v101q0 45 -29 72t-74 26q-44 -1 -70.5 -27.5t-26.5 -70.5zM110 381v117
q0 52 34 87.5t86 35.5t86 -35.5t34 -87.5v-117h-240zM50 502v-502h-20v500q0 84 58.5 141t142.5 57q83 0 141 -57.5t58 -140.5v-500h-20v502q0 70 -54.5 124t-124.5 54q-71 0 -126 -53.5t-55 -124.5zM130 301v-301h-20v321h240v-321h-20v301h-200zM368 749l-136 71h-2
l-136 -71l10 -18l127 66l127 -66zM349 713l-118 62l-118 -62l9 -18l109 57l109 -57z" />
    <glyph glyph-name="Atilde" unicode="&#xc3;" 
d="M90 502v-141h280v137q0 59 -40.5 100.5t-99.5 41.5q-57 0 -98.5 -40.5t-41.5 -97.5zM90 341v-341h-20v498q0 68 46 115.5t114 48.5q65 1 112.5 -47t47.5 -113v-502h-20v341h-280zM130 502v-101h200v101q0 45 -29 72t-74 26q-44 -1 -70.5 -27.5t-26.5 -70.5zM110 381v117
q0 52 34 87.5t86 35.5t86 -35.5t34 -87.5v-117h-240zM50 502v-502h-20v500q0 84 58.5 141t142.5 57q83 0 141 -57.5t58 -140.5v-500h-20v502q0 70 -54.5 124t-124.5 54q-71 0 -126 -53.5t-55 -124.5zM130 301v-301h-20v321h240v-321h-20v301h-200zM189 734q32 -12 63 -22.5
t73 16.5l-3 25q-44 -32 -78 -14t-52 18q-17 0 -42 -16l3 -28q10 12 36 21zM195 776q49 -20 68.5 -28.5t57.5 20.5l-3 26q-44 -33 -78 -14.5t-52 18t-43 -16.5l3 -27q11 12 47 22z" />
    <glyph glyph-name="Adieresis" unicode="&#xc4;" 
d="M90 502v-141h280v137q0 59 -40.5 100.5t-99.5 41.5q-57 0 -98.5 -40.5t-41.5 -97.5zM90 341v-341h-20v498q0 68 46 115.5t114 48.5q65 1 112.5 -47t47.5 -113v-502h-20v341h-280zM130 502v-101h200v101q0 45 -29 72t-74 26q-44 -1 -70.5 -27.5t-26.5 -70.5zM110 381v117
q0 52 34 87.5t86 35.5t86 -35.5t34 -87.5v-117h-240zM50 502v-502h-20v500q0 84 58.5 141t142.5 57q83 0 141 -57.5t58 -140.5v-500h-20v502q0 70 -54.5 124t-124.5 54q-71 0 -126 -53.5t-55 -124.5zM130 301v-301h-20v321h240v-321h-20v301h-200zM95 749q0 21 15 36t36 15
t36 -15t15 -36q0 -22 -15 -36.5t-36 -14.5t-36 14.5t-15 36.5zM115 749q0 -13 9 -23t22 -10q12 0 21 10t9 23q0 29 -29 28q-32 1 -32 -28zM135 749q0 10 11 10q13 0 13 -10q0 -15 -13 -15q-11 0 -11 15zM255 749q0 21 15 36t36 15t36 -15t15 -36q0 -22 -15 -36.5t-36 -14.5
t-36 14.5t-15 36.5zM275 749q0 -13 9 -23t22 -10q12 0 21 10t9 23q0 29 -29 28q-32 1 -32 -28zM295 749q0 10 11 10q13 0 13 -10q0 -15 -13 -15q-11 0 -11 15z" />
    <glyph glyph-name="Aring" unicode="&#xc5;" 
d="M90 502v-141h280v137q0 59 -40.5 100.5t-99.5 41.5q-57 0 -98.5 -40.5t-41.5 -97.5zM90 341v-341h-20v498q0 68 46 115.5t114 48.5q65 1 112.5 -47t47.5 -113v-502h-20v341h-280zM130 502v-101h200v101q0 45 -29 72t-74 26q-44 -1 -70.5 -27.5t-26.5 -70.5zM110 381v117
q0 52 34 87.5t86 35.5t86 -35.5t34 -87.5v-117h-240zM50 502v-502h-20v500q0 84 58.5 141t142.5 57q83 0 141 -57.5t58 -140.5v-500h-20v502q0 70 -54.5 124t-124.5 54q-71 0 -126 -53.5t-55 -124.5zM130 301v-301h-20v321h240v-321h-20v301h-200zM136 770q0 -20 7.5 -37
t21 -29.5t30.5 -19t37 -6.5q40 0 65 25.5t25 65.5t-25.5 66.5t-65.5 26.5t-66 -26.5t-26 -66.5zM159 769q0 30 21 50.5t50 20.5q30 0 51 -20.5t21 -50.5t-21 -50.5t-51 -20.5q-29 0 -50 20.5t-21 50.5zM181 769q0 -21 14.5 -36t34.5 -15q21 0 35.5 15t14.5 36t-14.5 36
t-35.5 15q-20 0 -34.5 -15t-14.5 -36zM199 768q0 13 9 22t22 9q14 0 23.5 -9t9.5 -22q0 -14 -9.5 -22.5t-23.5 -8.5q-13 0 -22 8.5t-9 22.5z" />
    <glyph glyph-name="AE" unicode="&#xc6;" horiz-adv-x="755" 
d="M421 583l14 15q42 42 100 42q57 0 99 -42.5t39 -99.5h20q4 66 -44 114t-114 50q-66 1 -100.5 -35t-36.5 -43t-15 -27q-3 7 -7 15q-2 2 -3 4q-10 16 -42.5 51.5t-97.5 34.5q-68 -1 -114 -48.5t-46 -115.5v-498h20v341h280v-341h20v119q6 -13 15 -24q12 -11 24 -21t25 -19
q35 -18 80 -17q67 2 113.5 49.5t44.5 114.5h-20q-1 -61 -40 -100t-95 -42q-65 -3 -107 38q-5 6 -10.5 12.5t-9.5 13.5v-1q-18 29 -20 67v150h210v20h-210v146v10t2 10zM373 504v-143h-280v141q0 57 41.5 97.5t98.5 40.5q59 0 81.5 -24t27.5 -29q11 -11 17.5 -25.5t9.5 -28.5
t4 -29zM324 577q-2 2 -20.5 23t-70.5 21t-86 -35.5t-34 -87.5v-117h240v115q-1 1 -1 4q-2 20 -7.5 40.5t-20.5 36.5zM133 502q0 44 26.5 70.5t70.5 27.5q45 1 74 -26t29 -72v-101h-200v101zM412 629q53 51 123 51t125.5 -56t52.5 -126h20q6 84 -54.5 142.5t-143.5 60.5
q-84 1 -143 -57q-6 -5 -11 -11q-3 4 -6 7q-58 58 -141 58q-84 0 -142.5 -57t-58.5 -141v-500h20v502q0 71 55 124.5t126 53.5q70 0 124 -54l1 -1q1 -1 5 -3l18 -24q4 8 9.5 14t11.5 11.5t8 5.5h1zM113 321v-321h20v301h200v-301h20v321h-240zM413 508v-128h190v20h-170v98
q0 45 29 74.5t73 27.5q45 -3 72.5 -30t25.5 -72h20q4 50 -32.5 86t-85.5 36q-54 0 -80 -30.5t-33.5 -47t-8.5 -34.5zM433 130q7 -10 16 -19q36 -34 91 -31q48 3 81 36.5t34 85.5h-20q-3 -48 -30 -74.5t-67 -28.5q-50 -2 -77.5 25t-27.5 76v100h170v20h-190v-129
q0 -1 0.5 -1.5t0.5 -1.5q2 -15 6.5 -30t12.5 -29v1zM433 0v27q46 -27 103 -27q82 0 141.5 60t57.5 142h-20q3 -70 -52 -125.5t-126 -56.5q-51 -2 -91 20q-18 11 -32 23v-63h19z" />
    <glyph glyph-name="Ccedilla" unicode="&#xc7;" horiz-adv-x="449" 
d="M250 39q52 8 93 49q48 49 44 114h-20q3 -58 -39 -99q-40 -40 -95 -43q-3 2 -8 0q-55 -1 -96 39q-42 41 -42 98v306q0 58 42 97.5t100 39.5q57 0 99 -42.5t39 -99.5h20q4 65 -44.5 114.5t-113.5 49.5q-69 0 -115.5 -47.5t-46.5 -116.5v-301q0 -65 48 -113q44 -44 102 -46
q5 -28 15 -44t20 -26t17 -19q7 -13 2 -22.5t-14 -15.5t-39 -7q-11 -1 -18 -1v-22q11 -1 26 0q38 2 52 16.5t16.5 30t-8.5 36.5l-19 22q-11 7 -18 20.5t-9 33.5q1 1 10 -1zM102 72q-55 54 -55 125v306q0 72 55 124t127 53q70 1 125.5 -55.5t52.5 -126.5h20q2 80 -58.5 143.5
t-139.5 62.5q-81 -1 -141.5 -60.5t-60.5 -140.5v-306q0 -80 61 -141q49 -48 97 -53q12 -31 24 -43t13 -14t-0.5 -3t-6.5 -1t-15 -1v-20q14 0 28.5 0.5t24.5 14.5q1 10 -5 16q-42 32 -48 70q-56 9 -98 50zM347 202h-20q2 -44 -26 -73t-72 -29q-45 0 -73.5 26.5t-28.5 70.5
v306q0 44 29 71t73 26q45 -1 72.5 -29.5t25.5 -72.5h20q4 49 -32 86t-86 37q-53 1 -87.5 -34.5t-34.5 -88.5v-301q0 -50 36 -84t86 -34t86 37t32 86zM302 -28q12 -19 12 -38q0 -20 -11.5 -38t-32.5 -27q-19 -6 -36 -7.5t-34 0.5v-22q28 -5 63 2.5t54.5 29.5t21.5 51
t-17.5 54.5t-25.5 31.5q40 16 73 51q60 62 58 142h-20q3 -71 -52 -126q-43 -43 -94 -53q9 -14 41 -51z" />
    <glyph glyph-name="Egrave" unicode="&#xc8;" horiz-adv-x="454" 
d="M232 20q71 1 126 56.5t52 125.5h20q2 -82 -57.5 -142t-141.5 -60q-83 0 -143 59t-60 141v298q0 89 59 146.5t143 56.5q83 -2 143.5 -60.5t54.5 -142.5h-20q3 70 -52.5 126t-125.5 56q-72 0 -127 -55t-55 -127v-298q0 -76 53.5 -129t130.5 -51zM233 99q40 2 67 28.5
t30 74.5h20q-1 -52 -34 -85.5t-81 -36.5q-55 -3 -91 31.5t-36 88.5v120h190v-20h-170v-100q0 -49 27.5 -76t77.5 -25zM235 60q56 3 95 42t40 100h20q2 -67 -44.5 -114.5t-113.5 -49.5q-70 -1 -117 46t-47 116v298q0 68 47 116.5t115 47.5q66 -2 114 -50t44 -114h-20
q3 57 -39 99.5t-99 42.5q-58 0 -100 -42t-42 -100v-138h210v-20h-210v-140q0 -63 41 -103t106 -37zM348 498h-20q2 45 -25.5 72t-72.5 30q-44 2 -73 -27.5t-29 -74.5v-98h170v-20h-190v118q0 53 34 87.5t88 34.5q49 0 85.5 -36t32.5 -86zM306 749l-10 -18l-135 70l9 19z
M287 713l-9 -18l-136 71l10 18z" />
    <glyph glyph-name="Eacute" unicode="&#xc9;" horiz-adv-x="454" 
d="M232 20q71 1 126 56.5t52 125.5h20q2 -82 -57.5 -142t-141.5 -60q-83 0 -143 59t-60 141v298q0 89 59 146.5t143 56.5q83 -2 143.5 -60.5t54.5 -142.5h-20q3 70 -52.5 126t-125.5 56q-72 0 -127 -55t-55 -127v-298q0 -76 53.5 -129t130.5 -51zM233 99q40 2 67 28.5
t30 74.5h20q-1 -52 -34 -85.5t-81 -36.5q-55 -3 -91 31.5t-36 88.5v120h190v-20h-170v-100q0 -49 27.5 -76t77.5 -25zM235 60q56 3 95 42t40 100h20q2 -67 -44.5 -114.5t-113.5 -49.5q-70 -1 -117 46t-47 116v298q0 68 47 116.5t115 47.5q66 -2 114 -50t44 -114h-20
q3 57 -39 99.5t-99 42.5q-58 0 -100 -42t-42 -100v-138h210v-20h-210v-140q0 -63 41 -103t106 -37zM348 498h-20q2 45 -25.5 72t-72.5 30q-44 2 -73 -27.5t-29 -74.5v-98h170v-20h-190v118q0 53 34 87.5t88 34.5q49 0 85.5 -36t32.5 -86zM159 749l10 -18l135 70l-9 19z
M178 713l9 -18l136 71l-10 18z" />
    <glyph glyph-name="glyph87" unicode="&#xca;" horiz-adv-x="454" 
d="M232 20q71 1 126 56.5t52 125.5h20q2 -82 -57.5 -142t-141.5 -60q-83 0 -143 59t-60 141v298q0 89 59 146.5t143 56.5q83 -2 143.5 -60.5t54.5 -142.5h-20q3 70 -52.5 126t-125.5 56q-72 0 -127 -55t-55 -127v-298q0 -76 53.5 -129t130.5 -51zM233 99q40 2 67 28.5
t30 74.5h20q-1 -52 -34 -85.5t-81 -36.5q-55 -3 -91 31.5t-36 88.5v120h190v-20h-170v-100q0 -49 27.5 -76t77.5 -25zM235 60q56 3 95 42t40 100h20q2 -67 -44.5 -114.5t-113.5 -49.5q-70 -1 -117 46t-47 116v298q0 68 47 116.5t115 47.5q66 -2 114 -50t44 -114h-20
q3 57 -39 99.5t-99 42.5q-58 0 -100 -42t-42 -100v-138h210v-20h-210v-140q0 -63 41 -103t106 -37zM348 498h-20q2 45 -25.5 72t-72.5 30q-44 2 -73 -27.5t-29 -74.5v-98h170v-20h-190v118q0 53 34 87.5t88 34.5q49 0 85.5 -36t32.5 -86zM368 749l-136 71h-2l-136 -71
l10 -18l127 66l127 -66zM349 713l-118 62l-118 -62l9 -18l109 57l109 -57z" />
    <glyph glyph-name="Ecircumflex" unicode="&#xcb;" horiz-adv-x="454" 
d="M232 20q71 1 126 56.5t52 125.5h20q2 -82 -57.5 -142t-141.5 -60q-83 0 -143 59t-60 141v298q0 89 59 146.5t143 56.5q83 -2 143.5 -60.5t54.5 -142.5h-20q3 70 -52.5 126t-125.5 56q-72 0 -127 -55t-55 -127v-298q0 -76 53.5 -129t130.5 -51zM233 99q40 2 67 28.5
t30 74.5h20q-1 -52 -34 -85.5t-81 -36.5q-55 -3 -91 31.5t-36 88.5v120h190v-20h-170v-100q0 -49 27.5 -76t77.5 -25zM235 60q56 3 95 42t40 100h20q2 -67 -44.5 -114.5t-113.5 -49.5q-70 -1 -117 46t-47 116v298q0 68 47 116.5t115 47.5q66 -2 114 -50t44 -114h-20
q3 57 -39 99.5t-99 42.5q-58 0 -100 -42t-42 -100v-138h210v-20h-210v-140q0 -63 41 -103t106 -37zM348 498h-20q2 45 -25.5 72t-72.5 30q-44 2 -73 -27.5t-29 -74.5v-98h170v-20h-190v118q0 53 34 87.5t88 34.5q49 0 85.5 -36t32.5 -86zM368 749l-136 71h-2l-136 -71
l10 -18l127 66l127 -66zM349 713l-118 62l-118 -62l9 -18l109 57l109 -57z" />
    <glyph glyph-name="Igrave" unicode="&#xcc;" horiz-adv-x="166" 
d="M32 703h20v-702h-20v702zM92 703h-20v-702h20v702zM132 703h-20v-702h20v702zM166 749l-10 -18l-135 70l9 19zM147 713l-9 -18l-136 71l10 18z" />
    <glyph glyph-name="Iacute" unicode="&#xcd;" horiz-adv-x="166" 
d="M32 703h20v-702h-20v702zM92 703h-20v-702h20v702zM132 703h-20v-702h20v702zM-1 749l10 -18l135 70l-9 19zM18 713l9 -18l136 71l-10 18z" />
    <glyph glyph-name="Icircumflex" unicode="&#xce;" horiz-adv-x="166" 
d="M32 703h20v-702h-20v702zM92 703h-20v-702h20v702zM132 703h-20v-702h20v702zM219 749l-136 71h-2l-136 -71l10 -18l127 66l127 -66zM200 713l-118 62l-118 -62l9 -18l109 57l109 -57z" />
    <glyph glyph-name="Idieresis" unicode="&#xcf;" horiz-adv-x="166" 
d="M32 703h20v-702h-20v702zM92 703h-20v-702h20v702zM132 703h-20v-702h20v702zM-48 749q0 21 15 36t36 15t36 -15t15 -36q0 -22 -15 -36.5t-36 -14.5t-36 14.5t-15 36.5zM-28 749q0 -13 9 -23t22 -10q12 0 21 10t9 23q0 29 -29 28q-32 1 -32 -28zM-8 749q0 10 11 10
q13 0 13 -10q0 -15 -13 -15q-11 0 -11 15zM112 749q0 21 15 36t36 15t36 -15t15 -36q0 -22 -15 -36.5t-36 -14.5t-36 14.5t-15 36.5zM132 749q0 -13 9 -23t22 -10q12 0 21 10t9 23q0 29 -29 28q-32 1 -32 -28zM152 749q0 10 11 10q13 0 13 -10q0 -15 -13 -15q-11 0 -11 15z
" />
    <glyph glyph-name="Ntilde" unicode="&#xd1;" horiz-adv-x="458" 
d="M349 0h-20v498q0 47 -29 75.5t-76 26.5q-95 -4 -95 -97v-503h-20v498q0 48 32.5 83.5t82.5 38.5q53 3 89 -33t36 -89v-498zM389 0h-20v498q0 59 -42.5 101t-102.5 41q-59 -1 -97 -41.5t-38 -100.5v-498h-20v498q0 65 44.5 112.5t110.5 49.5q67 2 116 -45t49 -112v-503z
M48 0h-19v503q0 82 62 141q59 55 133 56q82 1 143.5 -55t61.5 -142v-503h-20v498q0 76 -56 130.5t-129 51.5q-69 -3 -122 -53q-54 -53 -54 -121v-506zM189 734q32 -12 63 -22.5t73 16.5l-3 25q-44 -32 -78 -14t-52 18q-17 0 -42 -16l3 -28q10 12 36 21zM195 776
q49 -20 68.5 -28.5t57.5 20.5l-3 26q-44 -33 -78 -14.5t-52 18t-43 -16.5l3 -27q11 12 47 22z" />
    <glyph glyph-name="Ograve" unicode="&#xd2;" horiz-adv-x="452" 
d="M406 197v301q0 73 -55.5 125t-129.5 52q-68 0 -122 -54t-54 -123v-301q0 -69 53.5 -125.5t122.5 -56.5q75 1 130 54t55 128zM426 197q0 -85 -59.5 -143.5t-145.5 -58.5q-78 0 -136.5 61t-58.5 141v301q0 84 56 140.5t139 56.5q82 0 143.5 -56t61.5 -141v-301zM386 197
q0 -68 -48.5 -118t-116.5 -45q-61 -4 -109 50q-46 51 -46 113v301q0 64 45.5 113t109.5 44q66 5 115.5 -43t49.5 -114v-301zM366 197v301q0 58 -42.5 97.5t-102.5 39.5q-59 0 -97 -39t-38 -98v-301q0 -56 40 -99t95 -43q59 0 102 41.5t43 100.5zM346 197q0 -52 -37 -87.5
t-88 -35.5q-47 0 -81 37.5t-34 85.5v301q0 49 33 84.5t82 32.5q54 3 89.5 -30.5t35.5 -86.5v-301zM326 197v301q0 46 -28.5 71.5t-76.5 25.5q-44 0 -69.5 -26t-25.5 -71v-301q0 -42 27 -71.5t68 -32.5q105 7 105 104zM306 749l-10 -18l-135 70l9 19zM287 713l-9 -18l-136 71
l10 18z" />
    <glyph glyph-name="Oacute" unicode="&#xd3;" horiz-adv-x="452" 
d="M406 197v301q0 73 -55.5 125t-129.5 52q-68 0 -122 -54t-54 -123v-301q0 -69 53.5 -125.5t122.5 -56.5q75 1 130 54t55 128zM426 197q0 -85 -59.5 -143.5t-145.5 -58.5q-78 0 -136.5 61t-58.5 141v301q0 84 56 140.5t139 56.5q82 0 143.5 -56t61.5 -141v-301zM386 197
q0 -68 -48.5 -118t-116.5 -45q-61 -4 -109 50q-46 51 -46 113v301q0 64 45.5 113t109.5 44q66 5 115.5 -43t49.5 -114v-301zM366 197v301q0 58 -42.5 97.5t-102.5 39.5q-59 0 -97 -39t-38 -98v-301q0 -56 40 -99t95 -43q59 0 102 41.5t43 100.5zM346 197q0 -52 -37 -87.5
t-88 -35.5q-47 0 -81 37.5t-34 85.5v301q0 49 33 84.5t82 32.5q54 3 89.5 -30.5t35.5 -86.5v-301zM326 197v301q0 46 -28.5 71.5t-76.5 25.5q-44 0 -69.5 -26t-25.5 -71v-301q0 -42 27 -71.5t68 -32.5q105 7 105 104zM159 749l10 -18l135 70l-9 19zM178 713l9 -18l136 71
l-10 18z" />
    <glyph glyph-name="Ocircumflex" unicode="&#xd4;" horiz-adv-x="452" 
d="M406 197v301q0 73 -55.5 125t-129.5 52q-68 0 -122 -54t-54 -123v-301q0 -69 53.5 -125.5t122.5 -56.5q75 1 130 54t55 128zM426 197q0 -85 -59.5 -143.5t-145.5 -58.5q-78 0 -136.5 61t-58.5 141v301q0 84 56 140.5t139 56.5q82 0 143.5 -56t61.5 -141v-301zM386 197
q0 -68 -48.5 -118t-116.5 -45q-61 -4 -109 50q-46 51 -46 113v301q0 64 45.5 113t109.5 44q66 5 115.5 -43t49.5 -114v-301zM366 197v301q0 58 -42.5 97.5t-102.5 39.5q-59 0 -97 -39t-38 -98v-301q0 -56 40 -99t95 -43q59 0 102 41.5t43 100.5zM346 197q0 -52 -37 -87.5
t-88 -35.5q-47 0 -81 37.5t-34 85.5v301q0 49 33 84.5t82 32.5q54 3 89.5 -30.5t35.5 -86.5v-301zM326 197v301q0 46 -28.5 71.5t-76.5 25.5q-44 0 -69.5 -26t-25.5 -71v-301q0 -42 27 -71.5t68 -32.5q105 7 105 104zM368 749l-136 71h-2l-136 -71l10 -18l127 66l127 -66z
M349 713l-118 62l-118 -62l9 -18l109 57l109 -57z" />
    <glyph glyph-name="Otilde" unicode="&#xd5;" horiz-adv-x="452" 
d="M406 197v301q0 73 -55.5 125t-129.5 52q-68 0 -122 -54t-54 -123v-301q0 -69 53.5 -125.5t122.5 -56.5q75 1 130 54t55 128zM426 197q0 -85 -59.5 -143.5t-145.5 -58.5q-78 0 -136.5 61t-58.5 141v301q0 84 56 140.5t139 56.5q82 0 143.5 -56t61.5 -141v-301zM386 197
q0 -68 -48.5 -118t-116.5 -45q-61 -4 -109 50q-46 51 -46 113v301q0 64 45.5 113t109.5 44q66 5 115.5 -43t49.5 -114v-301zM366 197v301q0 58 -42.5 97.5t-102.5 39.5q-59 0 -97 -39t-38 -98v-301q0 -56 40 -99t95 -43q59 0 102 41.5t43 100.5zM346 197q0 -52 -37 -87.5
t-88 -35.5q-47 0 -81 37.5t-34 85.5v301q0 49 33 84.5t82 32.5q54 3 89.5 -30.5t35.5 -86.5v-301zM326 197v301q0 46 -28.5 71.5t-76.5 25.5q-44 0 -69.5 -26t-25.5 -71v-301q0 -42 27 -71.5t68 -32.5q105 7 105 104zM189 734q32 -12 63 -22.5t73 16.5l-3 25
q-44 -32 -78 -14t-52 18q-17 0 -42 -16l3 -28q10 12 36 21zM195 776q49 -20 68.5 -28.5t57.5 20.5l-3 26q-44 -33 -78 -14.5t-52 18t-43 -16.5l3 -27q11 12 47 22z" />
    <glyph glyph-name="Odieresis" unicode="&#xd6;" horiz-adv-x="452" 
d="M406 197v301q0 73 -55.5 125t-129.5 52q-68 0 -122 -54t-54 -123v-301q0 -69 53.5 -125.5t122.5 -56.5q75 1 130 54t55 128zM426 197q0 -85 -59.5 -143.5t-145.5 -58.5q-78 0 -136.5 61t-58.5 141v301q0 84 56 140.5t139 56.5q82 0 143.5 -56t61.5 -141v-301zM386 197
q0 -68 -48.5 -118t-116.5 -45q-61 -4 -109 50q-46 51 -46 113v301q0 64 45.5 113t109.5 44q66 5 115.5 -43t49.5 -114v-301zM366 197v301q0 58 -42.5 97.5t-102.5 39.5q-59 0 -97 -39t-38 -98v-301q0 -56 40 -99t95 -43q59 0 102 41.5t43 100.5zM346 197q0 -52 -37 -87.5
t-88 -35.5q-47 0 -81 37.5t-34 85.5v301q0 49 33 84.5t82 32.5q54 3 89.5 -30.5t35.5 -86.5v-301zM326 197v301q0 46 -28.5 71.5t-76.5 25.5q-44 0 -69.5 -26t-25.5 -71v-301q0 -42 27 -71.5t68 -32.5q105 7 105 104zM95 749q0 21 15 36t36 15t36 -15t15 -36
q0 -22 -15 -36.5t-36 -14.5t-36 14.5t-15 36.5zM115 749q0 -13 9 -23t22 -10q12 0 21 10t9 23q0 29 -29 28q-32 1 -32 -28zM135 749q0 10 11 10q13 0 13 -10q0 -15 -13 -15q-11 0 -11 15zM255 749q0 21 15 36t36 15t36 -15t15 -36q0 -22 -15 -36.5t-36 -14.5t-36 14.5
t-15 36.5zM275 749q0 -13 9 -23t22 -10q12 0 21 10t9 23q0 29 -29 28q-32 1 -32 -28zM295 749q0 10 11 10q13 0 13 -10q0 -15 -13 -15q-11 0 -11 15z" />
    <glyph glyph-name="Oslash" unicode="&#xd8;" horiz-adv-x="452" 
d="M112 84l1 -1l-29 -81h20l21 60l2 6l4 -5q2 0 6 -2h1q7 -5 14.5 -9.5t26 -12t42.5 -5.5q68 -5 116.5 45t48.5 118v301q0 48 -26 86q-7 0 -8 7q-4 8 -10 13t-11 12l-5 5l29 80h-20l-25 -68l-8 4q-1 0 -5 2q-3 2 -6.5 3.5t-6.5 3.5h2q-3 1 -5.5 1.5t-5.5 0.5q-7 0 -8 3
q-23 5 -46 4q-64 5 -109.5 -44t-45.5 -113v-301q0 -24 6 -46l1 -1q4 -7 7.5 -14t5.5 -14q5 -8 9 -15.5t10 -14.5q0 -1 0.5 -1.5t0.5 -1.5q3 -3 6 -5zM139 81q-5 3 -5 8l2 6q5 11 178 494l4 11l7 -7q1 -1 5 -3q15 -14 21 -31q15 -28 15 -61v-301q0 -59 -43 -100.5t-102 -41.5
q-25 0 -47 8q-11 0 -19 6.5t-16 11.5zM108 121v2q-2 2 -3 4q-2 5 -4 9.5t-4 9.5l-1 -2q-10 25 -10 53v301q0 59 38 98t97 39q25 0 46 -6q7 -2 13 -5.5t12 -5.5q4 -2 5 -3l6 -4l-183 -507q-7 8 -12 17zM172 85l4 -2l3 -1.5l3 -1.5q19 -6 39 -6q51 0 88 35.5t37 87.5v301
q0 20 -6 38q-4 1 -5 7q-2 11 -9 20q-3 -12 -7 -19q2 2 1 0t-1 -3q-1 -5 -5 -7q-154 -431 -157 -439l-1 -2q4 -2 7.5 -4.5t7.5 -4.5zM269 575q0 2 1 3q1 6 3.5 12t4.5 12q-8 4 -12 7l2 -2q-3 1 -5.5 2t-5.5 1q-6 0 -9 4q-12 1 -27 1q-49 3 -82 -32.5t-33 -84.5v-308
q0 -1 0.5 -1.5t0.5 -1.5q2 -11 3.5 -20t5.5 -17zM326 197q0 -97 -105 -104q-23 1 -42 11l146 406q1 -6 1 -12v-301zM256 591l-130 -364v271q0 45 25.5 71t69.5 26q19 0 35 -4zM124 2h19l3 9q35 -16 75 -16q86 0 145.5 58.5t59.5 143.5v301q0 81 -57 136l25 67h-20l-22 -68
q0 -7 -3 -8q4 -5 8.5 -9.5t8.5 -9.5q40 -47 40 -108v-301q0 -75 -55 -128t-130 -54q-33 0 -62 12q-11 2 -22 10q-2 -5 -3.5 -9t-3.5 -9zM88 77v3q-2 4 -5 7.5t-5 7.5q-33 47 -33 102v301q0 69 54 123t122 54q27 0 51 -8q1 0 1.5 0.5t1.5 0.5q11 -1 24 -8q2 4 16 41h-19
l-6 -17q-33 11 -69 11q-83 0 -139 -56.5t-56 -140.5v-301q0 -69 44 -125l-25 -70h20l14 39q-1 3 0 7q4 7 5.5 14t3.5 15z" />
    <glyph glyph-name="Ugrave" unicode="&#xd9;" horiz-adv-x="456" 
d="M108 701h20v-498q0 -46 29 -75t76 -27q95 5 95 97v503h20v-498q0 -48 -33 -83.5t-82 -38.5q-54 -3 -89.5 33t-35.5 89v498zM68 701h20v-498q0 -59 42.5 -101t102.5 -41q59 1 97 41.5t38 100.5v498h20v-498q0 -65 -45 -112.5t-110 -49.5q-67 -2 -116 45t-49 112v503z
M409 701h19v-503q0 -82 -63 -141q-58 -55 -132 -56q-83 0 -143 54q-62 58 -62 143v503h20v-498q0 -76 55.5 -130t129.5 -52q69 3 122.5 54.5t53.5 119.5v506zM306 749l-10 -18l-135 70l9 19zM287 713l-9 -18l-136 71l10 18z" />
    <glyph glyph-name="Uacute" unicode="&#xda;" horiz-adv-x="456" 
d="M108 701h20v-498q0 -46 29 -75t76 -27q95 5 95 97v503h20v-498q0 -48 -33 -83.5t-82 -38.5q-54 -3 -89.5 33t-35.5 89v498zM68 701h20v-498q0 -59 42.5 -101t102.5 -41q59 1 97 41.5t38 100.5v498h20v-498q0 -65 -45 -112.5t-110 -49.5q-67 -2 -116 45t-49 112v503z
M409 701h19v-503q0 -82 -63 -141q-58 -55 -132 -56q-83 0 -143 54q-62 58 -62 143v503h20v-498q0 -76 55.5 -130t129.5 -52q69 3 122.5 54.5t53.5 119.5v506zM159 749l10 -18l135 70l-9 19zM178 713l9 -18l136 71l-10 18z" />
    <glyph glyph-name="Ucircumflex" unicode="&#xdb;" horiz-adv-x="456" 
d="M108 701h20v-498q0 -46 29 -75t76 -27q95 5 95 97v503h20v-498q0 -48 -33 -83.5t-82 -38.5q-54 -3 -89.5 33t-35.5 89v498zM68 701h20v-498q0 -59 42.5 -101t102.5 -41q59 1 97 41.5t38 100.5v498h20v-498q0 -65 -45 -112.5t-110 -49.5q-67 -2 -116 45t-49 112v503z
M409 701h19v-503q0 -82 -63 -141q-58 -55 -132 -56q-83 0 -143 54q-62 58 -62 143v503h20v-498q0 -76 55.5 -130t129.5 -52q69 3 122.5 54.5t53.5 119.5v506zM368 749l-136 71h-2l-136 -71l10 -18l127 66l127 -66zM349 713l-118 62l-118 -62l9 -18l109 57l109 -57z" />
    <glyph glyph-name="Udieresis" unicode="&#xdc;" horiz-adv-x="456" 
d="M108 701h20v-498q0 -46 29 -75t76 -27q95 5 95 97v503h20v-498q0 -48 -33 -83.5t-82 -38.5q-54 -3 -89.5 33t-35.5 89v498zM68 701h20v-498q0 -59 42.5 -101t102.5 -41q59 1 97 41.5t38 100.5v498h20v-498q0 -65 -45 -112.5t-110 -49.5q-67 -2 -116 45t-49 112v503z
M409 701h19v-503q0 -82 -63 -141q-58 -55 -132 -56q-83 0 -143 54q-62 58 -62 143v503h20v-498q0 -76 55.5 -130t129.5 -52q69 3 122.5 54.5t53.5 119.5v506zM95 749q0 21 15 36t36 15t36 -15t15 -36q0 -22 -15 -36.5t-36 -14.5t-36 14.5t-15 36.5zM115 749q0 -13 9 -23
t22 -10q12 0 21 10t9 23q0 29 -29 28q-32 1 -32 -28zM135 749q0 10 11 10q13 0 13 -10q0 -15 -13 -15q-11 0 -11 15zM255 749q0 21 15 36t36 15t36 -15t15 -36q0 -22 -15 -36.5t-36 -14.5t-36 14.5t-15 36.5zM275 749q0 -13 9 -23t22 -10q12 0 21 10t9 23q0 29 -29 28
q-32 1 -32 -28zM295 749q0 10 11 10q13 0 13 -10q0 -15 -13 -15q-11 0 -11 15z" />
    <glyph glyph-name="germandbls" unicode="&#xdf;" horiz-adv-x="500" 
d="M34 0h20v502q0 85 55 133q53 45 141 45q86 0 137 -45q54 -48 54 -133q0 -35 -12 -72q-13 -41 -35 -61q-13 -12 -13 -17q0 -6 10 -16q31 -32 43 -66q9 -30 8 -79q-2 -83 -59 -129q-51 -40 -129 -42v-20q92 1 148 47q61 50 61 144q0 121 -60 159q28 22 44 69q14 40 14 83
q1 93 -62 147q-59 51 -155 51q-95 0 -152 -51q-59 -53 -58 -147v-502zM73 0h20v502q-1 64 48 103q45 35 108 35t105 -34q48 -38 47 -104q0 -45 -20 -82q-23 -43 -61 -56q-8 -4 -27 -6v-23q18 -2 32 -7q37 -15 57.5 -54.5t20.5 -82.5q0 -61 -50 -98q-42 -31 -99 -33v-20
q68 1 118 39q55 42 55 112q0 49 -24 93t-66 66q35 16 61 64q23 45 23 88q0 69 -55 115q-51 43 -122 43q-70 0 -119 -44q-49 -42 -52 -105v-511zM266 320v61q42 4 73 30q41 33 42 91q0 58 -41 89q-36 29 -96 29q-59 0 -93 -29q-38 -31 -38 -89v-502h20v510q3 43 35 69
q31 26 77 26q47 0 80 -26q36 -29 36 -77q0 -49 -35 -77q-30 -24 -72 -25h-7v-101h19q34 -6 61 -32q34 -32 34 -76q0 -47 -37 -71q-28 -18 -70 -20v-21q50 1 85 28q41 31 42 84q1 61 -42 97q-32 26 -73 32z" />
    <glyph glyph-name="FL00E0h" unicode="&#xe0;" 
d="M90 502v-141h280v137q0 59 -40.5 100.5t-99.5 41.5q-57 0 -98.5 -40.5t-41.5 -97.5zM90 341v-341h-20v498q0 68 46 115.5t114 48.5q65 1 112.5 -47t47.5 -113v-502h-20v341h-280zM130 502v-101h200v101q0 45 -29 72t-74 26q-44 -1 -70.5 -27.5t-26.5 -70.5zM110 381v117
q0 52 34 87.5t86 35.5t86 -35.5t34 -87.5v-117h-240zM50 502v-502h-20v500q0 84 58.5 141t142.5 57q83 0 141 -57.5t58 -140.5v-500h-20v502q0 70 -54.5 124t-124.5 54q-71 0 -126 -53.5t-55 -124.5zM130 301v-301h-20v321h240v-321h-20v301h-200zM306 749l-10 -18l-135 70
l9 19zM287 713l-9 -18l-136 71l10 18z" />
    <glyph glyph-name="FL00E1h" unicode="&#xe1;" 
d="M90 502v-141h280v137q0 59 -40.5 100.5t-99.5 41.5q-57 0 -98.5 -40.5t-41.5 -97.5zM90 341v-341h-20v498q0 68 46 115.5t114 48.5q65 1 112.5 -47t47.5 -113v-502h-20v341h-280zM130 502v-101h200v101q0 45 -29 72t-74 26q-44 -1 -70.5 -27.5t-26.5 -70.5zM110 381v117
q0 52 34 87.5t86 35.5t86 -35.5t34 -87.5v-117h-240zM50 502v-502h-20v500q0 84 58.5 141t142.5 57q83 0 141 -57.5t58 -140.5v-500h-20v502q0 70 -54.5 124t-124.5 54q-71 0 -126 -53.5t-55 -124.5zM130 301v-301h-20v321h240v-321h-20v301h-200zM159 749l10 -18l135 70
l-9 19zM178 713l9 -18l136 71l-10 18z" />
    <glyph glyph-name="FL00E2h" unicode="&#xe2;" 
d="M90 502v-141h280v137q0 59 -40.5 100.5t-99.5 41.5q-57 0 -98.5 -40.5t-41.5 -97.5zM90 341v-341h-20v498q0 68 46 115.5t114 48.5q65 1 112.5 -47t47.5 -113v-502h-20v341h-280zM130 502v-101h200v101q0 45 -29 72t-74 26q-44 -1 -70.5 -27.5t-26.5 -70.5zM110 381v117
q0 52 34 87.5t86 35.5t86 -35.5t34 -87.5v-117h-240zM50 502v-502h-20v500q0 84 58.5 141t142.5 57q83 0 141 -57.5t58 -140.5v-500h-20v502q0 70 -54.5 124t-124.5 54q-71 0 -126 -53.5t-55 -124.5zM130 301v-301h-20v321h240v-321h-20v301h-200zM368 749l-136 71h-2
l-136 -71l10 -18l127 66l127 -66zM349 713l-118 62l-118 -62l9 -18l109 57l109 -57z" />
    <glyph glyph-name="FL00E3h" unicode="&#xe3;" 
d="M90 502v-141h280v137q0 59 -40.5 100.5t-99.5 41.5q-57 0 -98.5 -40.5t-41.5 -97.5zM90 341v-341h-20v498q0 68 46 115.5t114 48.5q65 1 112.5 -47t47.5 -113v-502h-20v341h-280zM130 502v-101h200v101q0 45 -29 72t-74 26q-44 -1 -70.5 -27.5t-26.5 -70.5zM110 381v117
q0 52 34 87.5t86 35.5t86 -35.5t34 -87.5v-117h-240zM50 502v-502h-20v500q0 84 58.5 141t142.5 57q83 0 141 -57.5t58 -140.5v-500h-20v502q0 70 -54.5 124t-124.5 54q-71 0 -126 -53.5t-55 -124.5zM130 301v-301h-20v321h240v-321h-20v301h-200zM189 734q32 -12 63 -22.5
t73 16.5l-3 25q-44 -32 -78 -14t-52 18q-17 0 -42 -16l3 -28q10 12 36 21zM195 776q49 -20 68.5 -28.5t57.5 20.5l-3 26q-44 -33 -78 -14.5t-52 18t-43 -16.5l3 -27q11 12 47 22z" />
    <glyph glyph-name="FL00E4h" unicode="&#xe4;" 
d="M90 502v-141h280v137q0 59 -40.5 100.5t-99.5 41.5q-57 0 -98.5 -40.5t-41.5 -97.5zM90 341v-341h-20v498q0 68 46 115.5t114 48.5q65 1 112.5 -47t47.5 -113v-502h-20v341h-280zM130 502v-101h200v101q0 45 -29 72t-74 26q-44 -1 -70.5 -27.5t-26.5 -70.5zM110 381v117
q0 52 34 87.5t86 35.5t86 -35.5t34 -87.5v-117h-240zM50 502v-502h-20v500q0 84 58.5 141t142.5 57q83 0 141 -57.5t58 -140.5v-500h-20v502q0 70 -54.5 124t-124.5 54q-71 0 -126 -53.5t-55 -124.5zM130 301v-301h-20v321h240v-321h-20v301h-200zM95 749q0 21 15 36t36 15
t36 -15t15 -36q0 -22 -15 -36.5t-36 -14.5t-36 14.5t-15 36.5zM115 749q0 -13 9 -23t22 -10q12 0 21 10t9 23q0 29 -29 28q-32 1 -32 -28zM135 749q0 10 11 10q13 0 13 -10q0 -15 -13 -15q-11 0 -11 15zM255 749q0 21 15 36t36 15t36 -15t15 -36q0 -22 -15 -36.5t-36 -14.5
t-36 14.5t-15 36.5zM275 749q0 -13 9 -23t22 -10q12 0 21 10t9 23q0 29 -29 28q-32 1 -32 -28zM295 749q0 10 11 10q13 0 13 -10q0 -15 -13 -15q-11 0 -11 15z" />
    <glyph glyph-name="FL00E5h" unicode="&#xe5;" 
d="M90 502v-141h280v137q0 59 -40.5 100.5t-99.5 41.5q-57 0 -98.5 -40.5t-41.5 -97.5zM90 341v-341h-20v498q0 68 46 115.5t114 48.5q65 1 112.5 -47t47.5 -113v-502h-20v341h-280zM130 502v-101h200v101q0 45 -29 72t-74 26q-44 -1 -70.5 -27.5t-26.5 -70.5zM110 381v117
q0 52 34 87.5t86 35.5t86 -35.5t34 -87.5v-117h-240zM50 502v-502h-20v500q0 84 58.5 141t142.5 57q83 0 141 -57.5t58 -140.5v-500h-20v502q0 70 -54.5 124t-124.5 54q-71 0 -126 -53.5t-55 -124.5zM130 301v-301h-20v321h240v-321h-20v301h-200zM136 770q0 -20 7.5 -37
t21 -29.5t30.5 -19t37 -6.5q40 0 65 25.5t25 65.5t-25.5 66.5t-65.5 26.5t-66 -26.5t-26 -66.5zM159 769q0 30 21 50.5t50 20.5q30 0 51 -20.5t21 -50.5t-21 -50.5t-51 -20.5q-29 0 -50 20.5t-21 50.5zM181 769q0 -21 14.5 -36t34.5 -15q21 0 35.5 15t14.5 36t-14.5 36
t-35.5 15q-20 0 -34.5 -15t-14.5 -36zM199 768q0 13 9 22t22 9q14 0 23.5 -9t9.5 -22q0 -14 -9.5 -22.5t-23.5 -8.5q-13 0 -22 8.5t-9 22.5z" />
    <glyph glyph-name="FL00E6h" unicode="&#xe6;" horiz-adv-x="755" 
d="M421 583l14 15q42 42 100 42q57 0 99 -42.5t39 -99.5h20q4 66 -44 114t-114 50q-66 1 -100.5 -35t-36.5 -43t-15 -27q-3 7 -7 15q-2 2 -3 4q-10 16 -42.5 51.5t-97.5 34.5q-68 -1 -114 -48.5t-46 -115.5v-498h20v341h280v-341h20v119q6 -13 15 -24q12 -11 24 -21t25 -19
q35 -18 80 -17q67 2 113.5 49.5t44.5 114.5h-20q-1 -61 -40 -100t-95 -42q-65 -3 -107 38q-5 6 -10.5 12.5t-9.5 13.5v-1q-18 29 -20 67v150h210v20h-210v146v10t2 10zM373 504v-143h-280v141q0 57 41.5 97.5t98.5 40.5q59 0 81.5 -24t27.5 -29q11 -11 17.5 -25.5t9.5 -28.5
t4 -29zM324 577q-2 2 -20.5 23t-70.5 21t-86 -35.5t-34 -87.5v-117h240v115q-1 1 -1 4q-2 20 -7.5 40.5t-20.5 36.5zM133 502q0 44 26.5 70.5t70.5 27.5q45 1 74 -26t29 -72v-101h-200v101zM412 629q53 51 123 51t125.5 -56t52.5 -126h20q6 84 -54.5 142.5t-143.5 60.5
q-84 1 -143 -57q-6 -5 -11 -11q-3 4 -6 7q-58 58 -141 58q-84 0 -142.5 -57t-58.5 -141v-500h20v502q0 71 55 124.5t126 53.5q70 0 124 -54l1 -1q1 -1 5 -3l18 -24q4 8 9.5 14t11.5 11.5t8 5.5h1zM113 321v-321h20v301h200v-301h20v321h-240zM413 508v-128h190v20h-170v98
q0 45 29 74.5t73 27.5q45 -3 72.5 -30t25.5 -72h20q4 50 -32.5 86t-85.5 36q-54 0 -80 -30.5t-33.5 -47t-8.5 -34.5zM433 130q7 -10 16 -19q36 -34 91 -31q48 3 81 36.5t34 85.5h-20q-3 -48 -30 -74.5t-67 -28.5q-50 -2 -77.5 25t-27.5 76v100h170v20h-190v-129
q0 -1 0.5 -1.5t0.5 -1.5q2 -15 6.5 -30t12.5 -29v1zM433 0v27q46 -27 103 -27q82 0 141.5 60t57.5 142h-20q3 -70 -52 -125.5t-126 -56.5q-51 -2 -91 20q-18 11 -32 23v-63h19z" />
    <glyph glyph-name="FL00E7h" unicode="&#xe7;" horiz-adv-x="449" 
d="M250 39q52 8 93 49q48 49 44 114h-20q3 -58 -39 -99q-40 -40 -95 -43q-3 2 -8 0q-55 -1 -96 39q-42 41 -42 98v306q0 58 42 97.5t100 39.5q57 0 99 -42.5t39 -99.5h20q4 65 -44.5 114.5t-113.5 49.5q-69 0 -115.5 -47.5t-46.5 -116.5v-301q0 -65 48 -113q44 -44 102 -46
q5 -28 15 -44t20 -26t17 -19q7 -13 2 -22.5t-14 -15.5t-39 -7q-11 -1 -18 -1v-22q11 -1 26 0q38 2 52 16.5t16.5 30t-8.5 36.5l-19 22q-11 7 -18 20.5t-9 33.5q1 1 10 -1zM102 72q-55 54 -55 125v306q0 72 55 124t127 53q70 1 125.5 -55.5t52.5 -126.5h20q2 80 -58.5 143.5
t-139.5 62.5q-81 -1 -141.5 -60.5t-60.5 -140.5v-306q0 -80 61 -141q49 -48 97 -53q12 -31 24 -43t13 -14t-0.5 -3t-6.5 -1t-15 -1v-20q14 0 28.5 0.5t24.5 14.5q1 10 -5 16q-42 32 -48 70q-56 9 -98 50zM347 202h-20q2 -44 -26 -73t-72 -29q-45 0 -73.5 26.5t-28.5 70.5
v306q0 44 29 71t73 26q45 -1 72.5 -29.5t25.5 -72.5h20q4 49 -32 86t-86 37q-53 1 -87.5 -34.5t-34.5 -88.5v-301q0 -50 36 -84t86 -34t86 37t32 86zM302 -28q12 -19 12 -38q0 -20 -11.5 -38t-32.5 -27q-19 -6 -36 -7.5t-34 0.5v-22q28 -5 63 2.5t54.5 29.5t21.5 51
t-17.5 54.5t-25.5 31.5q40 16 73 51q60 62 58 142h-20q3 -71 -52 -126q-43 -43 -94 -53q9 -14 41 -51z" />
    <glyph glyph-name="FL00E8h" unicode="&#xe8;" horiz-adv-x="454" 
d="M232 20q71 1 126 56.5t52 125.5h20q2 -82 -57.5 -142t-141.5 -60q-83 0 -143 59t-60 141v298q0 89 59 146.5t143 56.5q83 -2 143.5 -60.5t54.5 -142.5h-20q3 70 -52.5 126t-125.5 56q-72 0 -127 -55t-55 -127v-298q0 -76 53.5 -129t130.5 -51zM233 99q40 2 67 28.5
t30 74.5h20q-1 -52 -34 -85.5t-81 -36.5q-55 -3 -91 31.5t-36 88.5v120h190v-20h-170v-100q0 -49 27.5 -76t77.5 -25zM235 60q56 3 95 42t40 100h20q2 -67 -44.5 -114.5t-113.5 -49.5q-70 -1 -117 46t-47 116v298q0 68 47 116.5t115 47.5q66 -2 114 -50t44 -114h-20
q3 57 -39 99.5t-99 42.5q-58 0 -100 -42t-42 -100v-138h210v-20h-210v-140q0 -63 41 -103t106 -37zM348 498h-20q2 45 -25.5 72t-72.5 30q-44 2 -73 -27.5t-29 -74.5v-98h170v-20h-190v118q0 53 34 87.5t88 34.5q49 0 85.5 -36t32.5 -86zM306 749l-10 -18l-135 70l9 19z
M287 713l-9 -18l-136 71l10 18z" />
    <glyph glyph-name="FL00E9h" unicode="&#xe9;" horiz-adv-x="454" 
d="M232 20q71 1 126 56.5t52 125.5h20q2 -82 -57.5 -142t-141.5 -60q-83 0 -143 59t-60 141v298q0 89 59 146.5t143 56.5q83 -2 143.5 -60.5t54.5 -142.5h-20q3 70 -52.5 126t-125.5 56q-72 0 -127 -55t-55 -127v-298q0 -76 53.5 -129t130.5 -51zM233 99q40 2 67 28.5
t30 74.5h20q-1 -52 -34 -85.5t-81 -36.5q-55 -3 -91 31.5t-36 88.5v120h190v-20h-170v-100q0 -49 27.5 -76t77.5 -25zM235 60q56 3 95 42t40 100h20q2 -67 -44.5 -114.5t-113.5 -49.5q-70 -1 -117 46t-47 116v298q0 68 47 116.5t115 47.5q66 -2 114 -50t44 -114h-20
q3 57 -39 99.5t-99 42.5q-58 0 -100 -42t-42 -100v-138h210v-20h-210v-140q0 -63 41 -103t106 -37zM348 498h-20q2 45 -25.5 72t-72.5 30q-44 2 -73 -27.5t-29 -74.5v-98h170v-20h-190v118q0 53 34 87.5t88 34.5q49 0 85.5 -36t32.5 -86zM159 749l10 -18l135 70l-9 19z
M178 713l9 -18l136 71l-10 18z" />
    <glyph glyph-name="FL00EAh" unicode="&#xea;" horiz-adv-x="454" 
d="M232 20q71 1 126 56.5t52 125.5h20q2 -82 -57.5 -142t-141.5 -60q-83 0 -143 59t-60 141v298q0 89 59 146.5t143 56.5q83 -2 143.5 -60.5t54.5 -142.5h-20q3 70 -52.5 126t-125.5 56q-72 0 -127 -55t-55 -127v-298q0 -76 53.5 -129t130.5 -51zM233 99q40 2 67 28.5
t30 74.5h20q-1 -52 -34 -85.5t-81 -36.5q-55 -3 -91 31.5t-36 88.5v120h190v-20h-170v-100q0 -49 27.5 -76t77.5 -25zM235 60q56 3 95 42t40 100h20q2 -67 -44.5 -114.5t-113.5 -49.5q-70 -1 -117 46t-47 116v298q0 68 47 116.5t115 47.5q66 -2 114 -50t44 -114h-20
q3 57 -39 99.5t-99 42.5q-58 0 -100 -42t-42 -100v-138h210v-20h-210v-140q0 -63 41 -103t106 -37zM348 498h-20q2 45 -25.5 72t-72.5 30q-44 2 -73 -27.5t-29 -74.5v-98h170v-20h-190v118q0 53 34 87.5t88 34.5q49 0 85.5 -36t32.5 -86zM368 749l-136 71h-2l-136 -71
l10 -18l127 66l127 -66zM349 713l-118 62l-118 -62l9 -18l109 57l109 -57z" />
    <glyph glyph-name="FL00EBh" unicode="&#xeb;" horiz-adv-x="454" 
d="M232 20q71 1 126 56.5t52 125.5h20q2 -82 -57.5 -142t-141.5 -60q-83 0 -143 59t-60 141v298q0 89 59 146.5t143 56.5q83 -2 143.5 -60.5t54.5 -142.5h-20q3 70 -52.5 126t-125.5 56q-72 0 -127 -55t-55 -127v-298q0 -76 53.5 -129t130.5 -51zM233 99q40 2 67 28.5
t30 74.5h20q-1 -52 -34 -85.5t-81 -36.5q-55 -3 -91 31.5t-36 88.5v120h190v-20h-170v-100q0 -49 27.5 -76t77.5 -25zM235 60q56 3 95 42t40 100h20q2 -67 -44.5 -114.5t-113.5 -49.5q-70 -1 -117 46t-47 116v298q0 68 47 116.5t115 47.5q66 -2 114 -50t44 -114h-20
q3 57 -39 99.5t-99 42.5q-58 0 -100 -42t-42 -100v-138h210v-20h-210v-140q0 -63 41 -103t106 -37zM348 498h-20q2 45 -25.5 72t-72.5 30q-44 2 -73 -27.5t-29 -74.5v-98h170v-20h-190v118q0 53 34 87.5t88 34.5q49 0 85.5 -36t32.5 -86zM368 749l-136 71h-2l-136 -71
l10 -18l127 66l127 -66zM349 713l-118 62l-118 -62l9 -18l109 57l109 -57z" />
    <glyph glyph-name="FL00ECh" unicode="&#xec;" horiz-adv-x="166" 
d="M32 703h20v-702h-20v702zM92 703h-20v-702h20v702zM132 703h-20v-702h20v702zM165 749l-10 -18l-135 70l9 19zM146 713l-9 -18l-136 71l10 18z" />
    <glyph glyph-name="FL00EDh" unicode="&#xed;" horiz-adv-x="166" 
d="M32 703h20v-702h-20v702zM92 703h-20v-702h20v702zM132 703h-20v-702h20v702zM-2 749l10 -18l135 70l-9 19zM17 713l9 -18l136 71l-10 18z" />
    <glyph glyph-name="FL00EEh" unicode="&#xee;" horiz-adv-x="166" 
d="M32 703h20v-702h-20v702zM92 703h-20v-702h20v702zM132 703h-20v-702h20v702zM218 749l-136 71h-2l-136 -71l10 -18l127 66l127 -66zM199 713l-118 62l-118 -62l9 -18l109 57l109 -57z" />
    <glyph glyph-name="FL00EFh" unicode="&#xef;" horiz-adv-x="166" 
d="M32 703h20v-702h-20v702zM92 703h-20v-702h20v702zM132 703h-20v-702h20v702zM-49 749q0 21 15 36t36 15t36 -15t15 -36q0 -22 -15 -36.5t-36 -14.5t-36 14.5t-15 36.5zM-29 749q0 -13 9 -23t22 -10q12 0 21 10t9 23q0 29 -29 28q-32 1 -32 -28zM-9 749q0 10 11 10
q13 0 13 -10q0 -15 -13 -15q-11 0 -11 15zM111 749q0 21 15 36t36 15t36 -15t15 -36q0 -22 -15 -36.5t-36 -14.5t-36 14.5t-15 36.5zM131 749q0 -13 9 -23t22 -10q12 0 21 10t9 23q0 29 -29 28q-32 1 -32 -28zM151 749q0 10 11 10q13 0 13 -10q0 -15 -13 -15q-11 0 -11 15z
" />
    <glyph glyph-name="FL00F1h" unicode="&#xf1;" horiz-adv-x="458" 
d="M349 0h-20v498q0 47 -29 75.5t-76 26.5q-95 -4 -95 -97v-503h-20v498q0 48 32.5 83.5t82.5 38.5q53 3 89 -33t36 -89v-498zM389 0h-20v498q0 59 -42.5 101t-102.5 41q-59 -1 -97 -41.5t-38 -100.5v-498h-20v498q0 65 44.5 112.5t110.5 49.5q67 2 116 -45t49 -112v-503z
M48 0h-19v503q0 82 62 141q59 55 133 56q82 1 143.5 -55t61.5 -142v-503h-20v498q0 76 -56 130.5t-129 51.5q-69 -3 -122 -53q-54 -53 -54 -121v-506zM189 734q32 -12 63 -22.5t73 16.5l-3 25q-44 -32 -78 -14t-52 18q-17 0 -42 -16l3 -28q10 12 36 21zM195 776
q49 -20 68.5 -28.5t57.5 20.5l-3 26q-44 -33 -78 -14.5t-52 18t-43 -16.5l3 -27q11 12 47 22z" />
    <glyph glyph-name="FL00F2h" unicode="&#xf2;" horiz-adv-x="452" 
d="M406 197v301q0 73 -55.5 125t-129.5 52q-68 0 -122 -54t-54 -123v-301q0 -69 53.5 -125.5t122.5 -56.5q75 1 130 54t55 128zM426 197q0 -85 -59.5 -143.5t-145.5 -58.5q-78 0 -136.5 61t-58.5 141v301q0 84 56 140.5t139 56.5q82 0 143.5 -56t61.5 -141v-301zM386 197
q0 -68 -48.5 -118t-116.5 -45q-61 -4 -109 50q-46 51 -46 113v301q0 64 45.5 113t109.5 44q66 5 115.5 -43t49.5 -114v-301zM366 197v301q0 58 -42.5 97.5t-102.5 39.5q-59 0 -97 -39t-38 -98v-301q0 -56 40 -99t95 -43q59 0 102 41.5t43 100.5zM346 197q0 -52 -37 -87.5
t-88 -35.5q-47 0 -81 37.5t-34 85.5v301q0 49 33 84.5t82 32.5q54 3 89.5 -30.5t35.5 -86.5v-301zM326 197v301q0 46 -28.5 71.5t-76.5 25.5q-44 0 -69.5 -26t-25.5 -71v-301q0 -42 27 -71.5t68 -32.5q105 7 105 104zM306 749l-10 -18l-135 70l9 19zM287 713l-9 -18l-136 71
l10 18z" />
    <glyph glyph-name="FL00F3h" unicode="&#xf3;" horiz-adv-x="452" 
d="M406 197v301q0 73 -55.5 125t-129.5 52q-68 0 -122 -54t-54 -123v-301q0 -69 53.5 -125.5t122.5 -56.5q75 1 130 54t55 128zM426 197q0 -85 -59.5 -143.5t-145.5 -58.5q-78 0 -136.5 61t-58.5 141v301q0 84 56 140.5t139 56.5q82 0 143.5 -56t61.5 -141v-301zM386 197
q0 -68 -48.5 -118t-116.5 -45q-61 -4 -109 50q-46 51 -46 113v301q0 64 45.5 113t109.5 44q66 5 115.5 -43t49.5 -114v-301zM366 197v301q0 58 -42.5 97.5t-102.5 39.5q-59 0 -97 -39t-38 -98v-301q0 -56 40 -99t95 -43q59 0 102 41.5t43 100.5zM346 197q0 -52 -37 -87.5
t-88 -35.5q-47 0 -81 37.5t-34 85.5v301q0 49 33 84.5t82 32.5q54 3 89.5 -30.5t35.5 -86.5v-301zM326 197v301q0 46 -28.5 71.5t-76.5 25.5q-44 0 -69.5 -26t-25.5 -71v-301q0 -42 27 -71.5t68 -32.5q105 7 105 104zM159 749l10 -18l135 70l-9 19zM178 713l9 -18l136 71
l-10 18z" />
    <glyph glyph-name="FL00F4h" unicode="&#xf4;" horiz-adv-x="452" 
d="M406 197v301q0 73 -55.5 125t-129.5 52q-68 0 -122 -54t-54 -123v-301q0 -69 53.5 -125.5t122.5 -56.5q75 1 130 54t55 128zM426 197q0 -85 -59.5 -143.5t-145.5 -58.5q-78 0 -136.5 61t-58.5 141v301q0 84 56 140.5t139 56.5q82 0 143.5 -56t61.5 -141v-301zM386 197
q0 -68 -48.5 -118t-116.5 -45q-61 -4 -109 50q-46 51 -46 113v301q0 64 45.5 113t109.5 44q66 5 115.5 -43t49.5 -114v-301zM366 197v301q0 58 -42.5 97.5t-102.5 39.5q-59 0 -97 -39t-38 -98v-301q0 -56 40 -99t95 -43q59 0 102 41.5t43 100.5zM346 197q0 -52 -37 -87.5
t-88 -35.5q-47 0 -81 37.5t-34 85.5v301q0 49 33 84.5t82 32.5q54 3 89.5 -30.5t35.5 -86.5v-301zM326 197v301q0 46 -28.5 71.5t-76.5 25.5q-44 0 -69.5 -26t-25.5 -71v-301q0 -42 27 -71.5t68 -32.5q105 7 105 104zM368 749l-136 71h-2l-136 -71l10 -18l127 66l127 -66z
M349 713l-118 62l-118 -62l9 -18l109 57l109 -57z" />
    <glyph glyph-name="FL00F5h" unicode="&#xf5;" horiz-adv-x="452" 
d="M406 197v301q0 73 -55.5 125t-129.5 52q-68 0 -122 -54t-54 -123v-301q0 -69 53.5 -125.5t122.5 -56.5q75 1 130 54t55 128zM426 197q0 -85 -59.5 -143.5t-145.5 -58.5q-78 0 -136.5 61t-58.5 141v301q0 84 56 140.5t139 56.5q82 0 143.5 -56t61.5 -141v-301zM386 197
q0 -68 -48.5 -118t-116.5 -45q-61 -4 -109 50q-46 51 -46 113v301q0 64 45.5 113t109.5 44q66 5 115.5 -43t49.5 -114v-301zM366 197v301q0 58 -42.5 97.5t-102.5 39.5q-59 0 -97 -39t-38 -98v-301q0 -56 40 -99t95 -43q59 0 102 41.5t43 100.5zM346 197q0 -52 -37 -87.5
t-88 -35.5q-47 0 -81 37.5t-34 85.5v301q0 49 33 84.5t82 32.5q54 3 89.5 -30.5t35.5 -86.5v-301zM326 197v301q0 46 -28.5 71.5t-76.5 25.5q-44 0 -69.5 -26t-25.5 -71v-301q0 -42 27 -71.5t68 -32.5q105 7 105 104zM189 734q32 -12 63 -22.5t73 16.5l-3 25
q-44 -32 -78 -14t-52 18q-17 0 -42 -16l3 -28q10 12 36 21zM195 776q49 -20 68.5 -28.5t57.5 20.5l-3 26q-44 -33 -78 -14.5t-52 18t-43 -16.5l3 -27q11 12 47 22z" />
    <glyph glyph-name="FL00F6h" unicode="&#xf6;" horiz-adv-x="452" 
d="M406 197v301q0 73 -55.5 125t-129.5 52q-68 0 -122 -54t-54 -123v-301q0 -69 53.5 -125.5t122.5 -56.5q75 1 130 54t55 128zM426 197q0 -85 -59.5 -143.5t-145.5 -58.5q-78 0 -136.5 61t-58.5 141v301q0 84 56 140.5t139 56.5q82 0 143.5 -56t61.5 -141v-301zM386 197
q0 -68 -48.5 -118t-116.5 -45q-61 -4 -109 50q-46 51 -46 113v301q0 64 45.5 113t109.5 44q66 5 115.5 -43t49.5 -114v-301zM366 197v301q0 58 -42.5 97.5t-102.5 39.5q-59 0 -97 -39t-38 -98v-301q0 -56 40 -99t95 -43q59 0 102 41.5t43 100.5zM346 197q0 -52 -37 -87.5
t-88 -35.5q-47 0 -81 37.5t-34 85.5v301q0 49 33 84.5t82 32.5q54 3 89.5 -30.5t35.5 -86.5v-301zM326 197v301q0 46 -28.5 71.5t-76.5 25.5q-44 0 -69.5 -26t-25.5 -71v-301q0 -42 27 -71.5t68 -32.5q105 7 105 104zM95 749q0 21 15 36t36 15t36 -15t15 -36
q0 -22 -15 -36.5t-36 -14.5t-36 14.5t-15 36.5zM115 749q0 -13 9 -23t22 -10q12 0 21 10t9 23q0 29 -29 28q-32 1 -32 -28zM135 749q0 10 11 10q13 0 13 -10q0 -15 -13 -15q-11 0 -11 15zM255 749q0 21 15 36t36 15t36 -15t15 -36q0 -22 -15 -36.5t-36 -14.5t-36 14.5
t-15 36.5zM275 749q0 -13 9 -23t22 -10q12 0 21 10t9 23q0 29 -29 28q-32 1 -32 -28zM295 749q0 10 11 10q13 0 13 -10q0 -15 -13 -15q-11 0 -11 15z" />
    <glyph glyph-name="FL00F8h" unicode="&#xf8;" horiz-adv-x="452" 
d="M112 84l1 -1l-29 -81h20l21 60l2 6l4 -5q2 0 6 -2h1q7 -5 14.5 -9.5t26 -12t42.5 -5.5q68 -5 116.5 45t48.5 118v301q0 48 -26 86q-7 0 -8 7q-4 8 -10 13t-11 12l-5 5l29 80h-20l-25 -68l-8 4q-1 0 -5 2q-3 2 -6.5 3.5t-6.5 3.5h2q-3 1 -5.5 1.5t-5.5 0.5q-7 0 -8 3
q-23 5 -46 4q-64 5 -109.5 -44t-45.5 -113v-301q0 -24 6 -46l1 -1q4 -7 7.5 -14t5.5 -14q5 -8 9 -15.5t10 -14.5q0 -1 0.5 -1.5t0.5 -1.5q3 -3 6 -5zM139 81q-5 3 -5 8l2 6q5 11 178 494l4 11l7 -7q1 -1 5 -3q15 -14 21 -31q15 -28 15 -61v-301q0 -59 -43 -100.5t-102 -41.5
q-25 0 -47 8q-11 0 -19 6.5t-16 11.5zM108 121v2q-2 2 -3 4q-2 5 -4 9.5t-4 9.5l-1 -2q-10 25 -10 53v301q0 59 38 98t97 39q25 0 46 -6q7 -2 13 -5.5t12 -5.5q4 -2 5 -3l6 -4l-183 -507q-7 8 -12 17zM172 85l4 -2l3 -1.5l3 -1.5q19 -6 39 -6q51 0 88 35.5t37 87.5v301
q0 20 -6 38q-4 1 -5 7q-2 11 -9 20q-3 -12 -7 -19q2 2 1 0t-1 -3q-1 -5 -5 -7q-154 -431 -157 -439l-1 -2q4 -2 7.5 -4.5t7.5 -4.5zM269 575q0 2 1 3q1 6 3.5 12t4.5 12q-8 4 -12 7l2 -2q-3 1 -5.5 2t-5.5 1q-6 0 -9 4q-12 1 -27 1q-49 3 -82 -32.5t-33 -84.5v-308
q0 -1 0.5 -1.5t0.5 -1.5q2 -11 3.5 -20t5.5 -17zM326 197q0 -97 -105 -104q-23 1 -42 11l146 406q1 -6 1 -12v-301zM256 591l-130 -364v271q0 45 25.5 71t69.5 26q19 0 35 -4zM124 2h19l3 9q35 -16 75 -16q86 0 145.5 58.5t59.5 143.5v301q0 81 -57 136l25 67h-20l-22 -68
q0 -7 -3 -8q4 -5 8.5 -9.5t8.5 -9.5q40 -47 40 -108v-301q0 -75 -55 -128t-130 -54q-33 0 -62 12q-11 2 -22 10q-2 -5 -3.5 -9t-3.5 -9zM88 77v3q-2 4 -5 7.5t-5 7.5q-33 47 -33 102v301q0 69 54 123t122 54q27 0 51 -8q1 0 1.5 0.5t1.5 0.5q11 -1 24 -8q2 4 16 41h-19
l-6 -17q-33 11 -69 11q-83 0 -139 -56.5t-56 -140.5v-301q0 -69 44 -125l-25 -70h20l14 39q-1 3 0 7q4 7 5.5 14t3.5 15z" />
    <glyph glyph-name="FL00F9h" unicode="&#xf9;" horiz-adv-x="456" 
d="M108 701h20v-498q0 -46 29 -75t76 -27q95 5 95 97v503h20v-498q0 -48 -33 -83.5t-82 -38.5q-54 -3 -89.5 33t-35.5 89v498zM68 701h20v-498q0 -59 42.5 -101t102.5 -41q59 1 97 41.5t38 100.5v498h20v-498q0 -65 -45 -112.5t-110 -49.5q-67 -2 -116 45t-49 112v503z
M409 701h19v-503q0 -82 -63 -141q-58 -55 -132 -56q-83 0 -143 54q-62 58 -62 143v503h20v-498q0 -76 55.5 -130t129.5 -52q69 3 122.5 54.5t53.5 119.5v506zM306 749l-10 -18l-135 70l9 19zM287 713l-9 -18l-136 71l10 18z" />
    <glyph glyph-name="FL00FAh" unicode="&#xfa;" horiz-adv-x="456" 
d="M108 701h20v-498q0 -46 29 -75t76 -27q95 5 95 97v503h20v-498q0 -48 -33 -83.5t-82 -38.5q-54 -3 -89.5 33t-35.5 89v498zM68 701h20v-498q0 -59 42.5 -101t102.5 -41q59 1 97 41.5t38 100.5v498h20v-498q0 -65 -45 -112.5t-110 -49.5q-67 -2 -116 45t-49 112v503z
M409 701h19v-503q0 -82 -63 -141q-58 -55 -132 -56q-83 0 -143 54q-62 58 -62 143v503h20v-498q0 -76 55.5 -130t129.5 -52q69 3 122.5 54.5t53.5 119.5v506zM159 749l10 -18l135 70l-9 19zM178 713l9 -18l136 71l-10 18z" />
    <glyph glyph-name="FL00FBh" unicode="&#xfb;" horiz-adv-x="456" 
d="M108 701h20v-498q0 -46 29 -75t76 -27q95 5 95 97v503h20v-498q0 -48 -33 -83.5t-82 -38.5q-54 -3 -89.5 33t-35.5 89v498zM68 701h20v-498q0 -59 42.5 -101t102.5 -41q59 1 97 41.5t38 100.5v498h20v-498q0 -65 -45 -112.5t-110 -49.5q-67 -2 -116 45t-49 112v503z
M409 701h19v-503q0 -82 -63 -141q-58 -55 -132 -56q-83 0 -143 54q-62 58 -62 143v503h20v-498q0 -76 55.5 -130t129.5 -52q69 3 122.5 54.5t53.5 119.5v506zM368 749l-136 71h-2l-136 -71l10 -18l127 66l127 -66zM349 713l-118 62l-118 -62l9 -18l109 57l109 -57z" />
    <glyph glyph-name="FL00FCh" unicode="&#xfc;" horiz-adv-x="456" 
d="M108 701h20v-498q0 -46 29 -75t76 -27q95 5 95 97v503h20v-498q0 -48 -33 -83.5t-82 -38.5q-54 -3 -89.5 33t-35.5 89v498zM68 701h20v-498q0 -59 42.5 -101t102.5 -41q59 1 97 41.5t38 100.5v498h20v-498q0 -65 -45 -112.5t-110 -49.5q-67 -2 -116 45t-49 112v503z
M409 701h19v-503q0 -82 -63 -141q-58 -55 -132 -56q-83 0 -143 54q-62 58 -62 143v503h20v-498q0 -76 55.5 -130t129.5 -52q69 3 122.5 54.5t53.5 119.5v506zM95 749q0 21 15 36t36 15t36 -15t15 -36q0 -22 -15 -36.5t-36 -14.5t-36 14.5t-15 36.5zM115 749q0 -13 9 -23
t22 -10q12 0 21 10t9 23q0 29 -29 28q-32 1 -32 -28zM135 749q0 10 11 10q13 0 13 -10q0 -15 -13 -15q-11 0 -11 15zM255 749q0 21 15 36t36 15t36 -15t15 -36q0 -22 -15 -36.5t-36 -14.5t-36 14.5t-15 36.5zM275 749q0 -13 9 -23t22 -10q12 0 21 10t9 23q0 29 -29 28
q-32 1 -32 -28zM295 749q0 10 11 10q13 0 13 -10q0 -15 -13 -15q-11 0 -11 15z" />
    <glyph glyph-name="Ccaron" unicode="&#x10c;" horiz-adv-x="449" 
d="M347 202q4 -49 -32 -86t-86 -37t-86 34t-36 84v301q0 53 34.5 88.5t87.5 34.5q50 0 86 -37t32 -86h-20q2 44 -25.5 72.5t-72.5 29.5q-44 1 -73 -26t-29 -71v-306q0 -44 28.5 -70.5t73.5 -26.5q44 0 72 29t26 73h20zM387 202q4 -65 -44 -113.5t-114 -50.5
q-65 -2 -113.5 46t-48.5 113v301q0 69 46.5 116.5t115.5 47.5q65 0 113.5 -49.5t44.5 -114.5h-20q3 57 -39 99.5t-99 42.5q-58 0 -100 -39.5t-42 -97.5v-306q0 -57 42.5 -98t99.5 -39q58 2 99.5 43t38.5 99h20zM427 202q2 -80 -57.5 -142t-140.5 -63q-80 -1 -141 59.5
t-61 140.5v306q0 81 60.5 140.5t141.5 60.5q79 1 139.5 -62.5t58.5 -143.5h-20q3 70 -52.5 126.5t-125.5 55.5q-72 -1 -127 -53t-55 -124v-306q0 -71 55.5 -124.5t126.5 -52.5t126 56t52 126h20zM95 765l136 -71h2l136 71l-10 18l-127 -66l-127 66zM114 801l118 -62l118 62
l-9 18l-109 -57l-109 57z" />
    <glyph glyph-name="FL010Dh" unicode="&#x10d;" horiz-adv-x="449" 
d="M347 202q4 -49 -32 -86t-86 -37t-86 34t-36 84v301q0 53 34.5 88.5t87.5 34.5q50 0 86 -37t32 -86h-20q2 44 -25.5 72.5t-72.5 29.5q-44 1 -73 -26t-29 -71v-306q0 -44 28.5 -70.5t73.5 -26.5q44 0 72 29t26 73h20zM387 202q4 -65 -44 -113.5t-114 -50.5
q-65 -2 -113.5 46t-48.5 113v301q0 69 46.5 116.5t115.5 47.5q65 0 113.5 -49.5t44.5 -114.5h-20q3 57 -39 99.5t-99 42.5q-58 0 -100 -39.5t-42 -97.5v-306q0 -57 42.5 -98t99.5 -39q58 2 99.5 43t38.5 99h20zM427 202q2 -80 -57.5 -142t-140.5 -63q-80 -1 -141 59.5
t-61 140.5v306q0 81 60.5 140.5t141.5 60.5q79 1 139.5 -62.5t58.5 -143.5h-20q3 70 -52.5 126.5t-125.5 55.5q-72 -1 -127 -53t-55 -124v-306q0 -71 55.5 -124.5t126.5 -52.5t126 56t52 126h20zM94 765l136 -71h2l136 71l-10 18l-127 -66l-127 66zM113 801l118 -62l118 62
l-9 18l-109 -57l-109 57z" />
    <glyph glyph-name="OE" unicode="&#x152;" horiz-adv-x="762" 
d="M416 586l4 4t26.5 25.5t83.5 24.5q57 0 99 -42.5t39 -99.5h20q4 66 -44 114t-114 50q-68 1 -115 -48q-13 -12 -20 -24.5t-19 -37.5q-4 11 -10 22q-8 7 -12.5 15t-11.5 16l-6 7q-49 48 -115 43q-64 5 -109.5 -44t-45.5 -113v-301q0 -62 46 -113q48 -54 109 -50
q68 -5 116 45l4 4q7 11 16.5 23t14.5 24q3 6 5 13q1 -6 4 -12q6 -9 13 -21.5t15 -20.5q3 -2 6 -5q47 -47 117 -46q67 2 113.5 49.5t44.5 114.5h-20q-1 -61 -40 -100t-95 -42q-65 -3 -106 37q-11 10 -18 21q-2 2 -2 3q-3 5 -6 10.5t-5 11.5q-6 14 -8 29q0 1 -0.5 4.5t-1 19.5
t-0.5 49v95h210v20h-210v146q2 25 8 44.5t20 35.5zM344 118q-4 -4 -5 -4q-7 -9 -16 -18q-43 -41 -102 -41q-55 0 -95 43t-40 99v301q0 59 38 98t97 39q60 0 102 -40q7 -7 16.5 -19.5t15.5 -26.5l1 1q4 -10 6 -21q5 -20 5 -37q0 -9 -1 -14v-273q1 -5 1 -15q0 -19 -6.5 -37.5
t-16.5 -34.5zM324 567l-14 17q-35 34 -89 31q-49 3 -82 -32.5t-33 -84.5v-301q0 -48 34 -85.5t81 -37.5q51 0 88 35q11 11 18 23q8 16 13 32t8 34v280q-1 14 -2.5 28t-4.5 28q-2 4 -7 14.5t-10 18.5zM326 197q0 -97 -105 -104q-41 3 -68 32.5t-27 71.5v301q0 45 25.5 71
t69.5 26q48 0 76.5 -25.5t28.5 -71.5v-301zM392 614l11 11q55 55 127 55q70 0 125.5 -56t52.5 -126h20q6 84 -54.5 142.5t-143.5 60.5q-84 1 -143 -57l-14 -14q-4 5 -9 9q-61 56 -143 56q-83 0 -139 -56.5t-56 -140.5v-301q0 -80 58.5 -141t136.5 -61q86 0 145 58q7 7 13 14
q4 -4 9 -8q60 -59 143 -59q82 0 141.5 60t57.5 142h-20q3 -70 -52 -125.5t-126 -56.5q-75 -2 -129 48q-4 0 -7 5q-5 6 -10 11.5t-9 11.5l-26 -27q-55 -53 -130 -54q-69 0 -122.5 56.5t-53.5 125.5v301q0 69 54 123t122 54q74 0 108 -31.5t37.5 -38.5t8.5 -13q8 13 17 22z
M406 380h192v20h-170v98q0 45 29 74.5t73 27.5q45 -3 72.5 -30t25.5 -72h20q4 50 -32.5 86t-85.5 36q-54 0 -75 -21.5t-22 -23t-2 -2.5q-9 -14 -13 -24t-6 -17.5t-3 -14.5t-3 -14v-123zM406 320v-134q8 -14 9 -25.5t10 -23.5q0 -1 1.5 -4.5l1.5 -3.5q7 -10 16 -18
q36 -34 91 -31q48 3 81 36.5t34 85.5h-20q-3 -48 -30 -74.5t-67 -28.5q-50 -2 -74.5 26t-30.5 75v100h170v20h-192z" />
    <glyph glyph-name="sacute" unicode="&#x15b;" horiz-adv-x="449" 
d="M424 186q-2 -81 -60 -134.5t-140 -53.5q-84 0 -143 57.5t-58 141.5h20q-3 -72 53 -127.5t128 -55.5q69 0 123.5 51.5t56.5 120.5q2 77 -51 135.5t-130 56.5q-53 -1 -90 38t-33 92q4 47 39.5 81t82.5 34q50 -1 87.5 -37.5t33.5 -86.5h-20q2 46 -26.5 73.5t-74.5 27.5
q-44 0 -72.5 -25.5t-31.5 -69.5q-4 -48 26.5 -77.5t78.5 -29.5q90 0 147 -61t54 -151zM346 188q-4 -47 -39.5 -81t-82.5 -34q-50 1 -87.5 37.5t-33.5 86.5h20q-2 -46 26.5 -73.5t74.5 -27.5q44 0 72.5 25.5t31.5 69.5q4 48 -26.5 77.5t-78.5 29.5q-89 0 -145.5 61t-55.5 151
q2 81 60 135.5t140 54.5q84 0 143.5 -58.5t57.5 -142.5h-20q3 72 -53 127.5t-128 55.5q-69 0 -123.5 -51.5t-56.5 -120.5q-2 -77 51 -135.5t130 -56.5q53 1 90 -38t33 -92zM387 186q0 -64 -50 -110t-114 -44q-67 2 -115.5 50.5t-44.5 114.5h20q-3 -59 39.5 -100.5
t101.5 -41.5q56 0 100.5 38.5t44.5 94.5q0 62 -42 107t-104 43q-69 -2 -116.5 50t-47.5 122q0 64 50 110t114 44q67 -2 115.5 -50.5t44.5 -114.5h-20q3 59 -39.5 100.5t-101.5 41.5q-56 0 -100.5 -38.5t-44.5 -94.5q0 -62 42 -107t104 -43q70 2 117 -50t47 -122zM159 749
l10 -18l135 70l-9 19zM178 713l9 -18l136 71l-10 18z" />
    <glyph glyph-name="Scaron" unicode="&#x160;" horiz-adv-x="449" 
d="M424 186q-2 -81 -60 -134.5t-140 -53.5q-84 0 -143 57.5t-58 141.5h20q-3 -72 53 -127.5t128 -55.5q69 0 123.5 51.5t56.5 120.5q2 77 -51 135.5t-130 56.5q-53 -1 -90 38t-33 92q4 47 39.5 81t82.5 34q50 -1 87.5 -37.5t33.5 -86.5h-20q2 46 -26.5 73.5t-74.5 27.5
q-44 0 -72.5 -25.5t-31.5 -69.5q-4 -48 26.5 -77.5t78.5 -29.5q90 0 147 -61t54 -151zM346 188q-4 -47 -39.5 -81t-82.5 -34q-50 1 -87.5 37.5t-33.5 86.5h20q-2 -46 26.5 -73.5t74.5 -27.5q44 0 72.5 25.5t31.5 69.5q4 48 -26.5 77.5t-78.5 29.5q-89 0 -145.5 61t-55.5 151
q2 81 60 135.5t140 54.5q84 0 143.5 -58.5t57.5 -142.5h-20q3 72 -53 127.5t-128 55.5q-69 0 -123.5 -51.5t-56.5 -120.5q-2 -77 51 -135.5t130 -56.5q53 1 90 -38t33 -92zM387 186q0 -64 -50 -110t-114 -44q-67 2 -115.5 50.5t-44.5 114.5h20q-3 -59 39.5 -100.5
t101.5 -41.5q56 0 100.5 38.5t44.5 94.5q0 62 -42 107t-104 43q-69 -2 -116.5 50t-47.5 122q0 64 50 110t114 44q67 -2 115.5 -50.5t44.5 -114.5h-20q3 59 -39.5 100.5t-101.5 41.5q-56 0 -100.5 -38.5t-44.5 -94.5q0 -62 42 -107t104 -43q70 2 117 -50t47 -122zM95 765
l136 -71h2l136 71l-10 18l-127 -66l-127 66zM114 801l118 -62l118 62l-9 18l-109 -57l-109 57z" />
    <glyph glyph-name="FL0161h" unicode="&#x161;" horiz-adv-x="449" 
d="M424 186q-2 -81 -60 -134.5t-140 -53.5q-84 0 -143 57.5t-58 141.5h20q-3 -72 53 -127.5t128 -55.5q69 0 123.5 51.5t56.5 120.5q2 77 -51 135.5t-130 56.5q-53 -1 -90 38t-33 92q4 47 39.5 81t82.5 34q50 -1 87.5 -37.5t33.5 -86.5h-20q2 46 -26.5 73.5t-74.5 27.5
q-44 0 -72.5 -25.5t-31.5 -69.5q-4 -48 26.5 -77.5t78.5 -29.5q90 0 147 -61t54 -151zM346 188q-4 -47 -39.5 -81t-82.5 -34q-50 1 -87.5 37.5t-33.5 86.5h20q-2 -46 26.5 -73.5t74.5 -27.5q44 0 72.5 25.5t31.5 69.5q4 48 -26.5 77.5t-78.5 29.5q-89 0 -145.5 61t-55.5 151
q2 81 60 135.5t140 54.5q84 0 143.5 -58.5t57.5 -142.5h-20q3 72 -53 127.5t-128 55.5q-69 0 -123.5 -51.5t-56.5 -120.5q-2 -77 51 -135.5t130 -56.5q53 1 90 -38t33 -92zM387 186q0 -64 -50 -110t-114 -44q-67 2 -115.5 50.5t-44.5 114.5h20q-3 -59 39.5 -100.5
t101.5 -41.5q56 0 100.5 38.5t44.5 94.5q0 62 -42 107t-104 43q-69 -2 -116.5 50t-47.5 122q0 64 50 110t114 44q67 -2 115.5 -50.5t44.5 -114.5h-20q3 59 -39.5 100.5t-101.5 41.5q-56 0 -100.5 -38.5t-44.5 -94.5q0 -62 42 -107t104 -43q70 2 117 -50t47 -122zM94 765
l136 -71h2l136 71l-10 18l-127 -66l-127 66zM113 801l118 -62l118 62l-9 18l-109 -57l-109 57z" />
    <glyph glyph-name="zacute" unicode="&#x17a;" horiz-adv-x="379" 
d="M351 74h-231l218 606h-301v20h328l-218 -606h204v-20zM351 34h-284l217 606h-247v20h274l-217 -606h257v-20zM351 -5h-338l218 605h-194v20h221l-218 -606h311v-19zM159 749l10 -18l135 70l-9 19zM178 713l9 -18l136 71l-10 18z" />
    <glyph glyph-name="Zcaron" unicode="&#x17d;" horiz-adv-x="379" 
d="M351 74h-231l218 606h-301v20h328l-218 -606h204v-20zM351 34h-284l217 606h-247v20h274l-217 -606h257v-20zM351 -5h-338l218 605h-194v20h221l-218 -606h311v-19zM75 765l136 -71h2l136 71l-10 18l-127 -66l-127 66zM94 801l118 -62l118 62l-9 18l-109 -57l-109 57z
" />
    <glyph glyph-name="zcaron" unicode="&#x17e;" horiz-adv-x="379" 
d="M351 74h-231l218 606h-301v20h328l-218 -606h204v-20zM351 34h-284l217 606h-247v20h274l-217 -606h257v-20zM351 -5h-338l218 605h-194v20h221l-218 -606h311v-19zM75 765l136 -71h2l136 71l-10 18l-127 -66l-127 66zM94 801l118 -62l118 62l-9 18l-109 -57l-109 57z
" />
    <glyph glyph-name="circumflex" unicode="&#x2c6;" horiz-adv-x="500" 
d="M368 749l-136 71h-2l-136 -71l10 -18l127 66l127 -66zM349 713l-118 62l-118 -62l9 -18l109 57l109 -57z" />
    <glyph glyph-name="caron" unicode="&#x2c7;" horiz-adv-x="500" 
d="M194 765l136 -71h2l136 71l-10 18l-127 -66l-127 66zM213 801l118 -62l118 62l-9 18l-109 -57l-109 57z" />
    <glyph glyph-name="tilde" unicode="&#x2dc;" horiz-adv-x="500" 
d="M189 734q32 -12 63 -22.5t73 16.5l-3 25q-44 -32 -78 -14t-52 18q-17 0 -42 -16l3 -28q10 12 36 21zM195 776q49 -20 68.5 -28.5t57.5 20.5l-3 26q-44 -33 -78 -14.5t-52 18t-43 -16.5l3 -27q11 12 47 22z" />
    <glyph glyph-name="ellipsis" unicode="&#x2026;" horiz-adv-x="500" 
 />
    <glyph glyph-name="glyph29" horiz-adv-x="500" 
 />
    <glyph glyph-name="glyph30" horiz-adv-x="500" 
 />
    <glyph glyph-name="glyph153" horiz-adv-x="0" 
 />
    <glyph glyph-name="glyph154" horiz-adv-x="500" 
 />
    <glyph glyph-name="glyph155" horiz-adv-x="500" 
 />
    <glyph glyph-name="ring" horiz-adv-x="500" 
d="M136 770q0 -20 7.5 -37t21 -29.5t30.5 -19t37 -6.5q40 0 65 25.5t25 65.5t-25.5 66.5t-65.5 26.5t-66 -26.5t-26 -66.5zM159 769q0 30 21 50.5t50 20.5q30 0 51 -20.5t21 -50.5t-21 -50.5t-51 -20.5q-29 0 -50 20.5t-21 50.5zM181 769q0 -21 14.5 -36t34.5 -15
q21 0 35.5 15t14.5 36t-14.5 36t-35.5 15q-20 0 -34.5 -15t-14.5 -36zM199 768q0 13 9 22t22 9q14 0 23.5 -9t9.5 -22q0 -14 -9.5 -22.5t-23.5 -8.5q-13 0 -22 8.5t-9 22.5z" />
    <glyph glyph-name=".null" horiz-adv-x="0" 
 />
    </font>
</defs>
</svg>
